• Для скачивания альбомов c Облако Mail.Ru и Яндекс.Диск на нашем сайте необходимо зарегистрироваться.
  • Заказать необходимый альбом Вы можете в нашем специальном разделе "Стол заказов ".
Timothy Wenzel - Mountains Take Wing (2012) [WEB / FLAC / lossless]

Timothy Wenzel - Mountains Take Wing (2012) [WEB / FLAC / lossless]

нет прав для скачивания с cloud.mail.ru
Timothy Wenzel - Mountains Take Wing


Исполнитель: Timothy Wenzel
Альбом: Mountains Take Wing
Носитель: WEB альбом
Дата выпуска: 2012
Жанр: New Age
Формат: FLAC (tracks)
Битрейт: 598-838 kbps
Продолжительность: 00:45:20
Пароль на архив: grandorchestra

Треклист:
01. Birka [00:03:24]
02.
Ascend [00:03:41]
03.
Snow Falling Softly [00:04:37]
04.
Fallow Fields [00:04:34]
05.
Flight of the Sandhill Crane [00:04:15]
06.
Gently Falls the Rain [00:03:13]
07.
Mountains Take Wing [00:03:15]
08.
Coyote Floe [00:04:19]
09.
Requiem in Red [00:03:37]
10.
Christopher's Dreams [00:03:39]
11.
Winter Star [00:02:19]
12.
Aurora Borealis [00:04:22]

foobar2000 1.3.9 / Замер динамического диапазона (DR) 1.1.1
Дата отчёта: 2018-10-08 12:09:54

--------------------------------------------------------------------------------
Анализ: Timothy Wenzel / Mountains Take Wing
--------------------------------------------------------------------------------

DR Пики RMS Продолжительность трека
--------------------------------------------------------------------------------
DR10 -0.90 дБ -12.77 дБ 3:24 01-Birka
DR11 0.00 дБ -13.08 дБ 3:42 02-Ascend
DR9 -0.45 дБ -11.15 дБ 4:38 03-Snow Falling Softly
DR10 0.00 дБ -12.45 дБ 4:35 04-Fallow Fields
DR9 0.00 дБ -13.42 дБ 4:16 05-Flight of the Sandhill Crane
DR10 -0.92 дБ -13.00 дБ 3:13 06-Gently Falls the Rain
DR10 -0.40 дБ -13.05 дБ 3:15 07-Mountains Take Wing
DR10 0.00 дБ -12.80 дБ 4:20 08-Coyote Floe
DR9 0.00 дБ -12.10 дБ 3:37 09-Requiem in Red
DR10 -0.69 дБ -13.68 дБ 3:39 10-Christopher's Dreams
DR9 0.00 дБ -11.93 дБ 2:19 11-Winter Star
DR10 -0.45 дБ -13.08 дБ 4:23 12-Aurora Borealis
--------------------------------------------------------------------------------

Количество треков: 12
Реальные значения DR: DR10

Частота: 44100 Гц
Каналов: 2
Разрядность: 16
Битрейт: 598 кбит/с
Кодек: FLAC
================================================================================
-----------------------

DON'T MODIFY THIS FILE

-----------------------

PERFORMER: auCDtect Task Manager, ver. 1.6.0 RC1 build 1.6.0.1
Copyright (c) 2008-2010 y-soft. All rights reserved
http://y-soft.org

ANALYZER: auCDtect: CD records authenticity detector, version 0.8.2
Copyright (c) 2004 Oleg Berngardt. All rights reserved.
Copyright (c) 2004 Alexander Djourik. All rights reserved.


FILE: 12. Aurora Borealis.flac
Size: 19838485 Hash: 4713F2605E5976ADD9F1ED9FD6DE3B04 Accuracy: -m0
Conclusion: MPEG 80%
Signature: 669A96E75F18ED6ADCF5254FF6426203FD4DA40D
FILE: 11. Winter Star.flac
Size: 12348121 Hash: 5FAD458C7BC182F147346CC59C5F8499 Accuracy: -m0
Conclusion: CDDA 100%
Signature: 6163E459E745079777C4A5059BE59BAB0571E860
FILE: 10. Christopher's Dreams.flac
Size: 23154645 Hash: 6FCD09EC002993AD4FCC3BC8BB241EFF Accuracy: -m0
Conclusion: MPEG 93%
Signature: 99E9E6FC9F2C0D189AB01F97F1F2E9087608CA11
FILE: 09. Requiem in Red.flac
Size: 18473523 Hash: 9B258B04E52B7F0B1DEFA051068BFD66 Accuracy: -m0
Conclusion: CDDA 99%
Signature: E2039B9CBE0E4A4AAC14CC06D1D9CBDC5A772F21
FILE: 08. Coyote Floe.flac
Size: 21723281 Hash: 671101E250CEFE0F3C19D3B4F7D13BB4 Accuracy: -m0
Conclusion: CDDA 100%
Signature: A0CC97BD3913AC0D67C83A52336AF2F091A9CC4F
FILE: 07. Mountains Take Wing.flac
Size: 18452745 Hash: 224C028F1C3DEC1E0934E574C2A1FD35 Accuracy: -m0
Conclusion: CDDA 100%
Signature: A70E137B981D3B51FD99DA52859F200854BD0A43
FILE: 06. Gently Falls the Rain.flac
Size: 14660834 Hash: 4F3234A47F7D44ED88F73592F8005E47 Accuracy: -m0
Conclusion: CDDA 100%
Signature: F5F904EA2DDD51A6CEA45627790ED998063D30AE
FILE: 05. Flight of the Sandhill Crane.flac
Size: 23033792 Hash: 291F108320EC6B0F8521C52443D48D45 Accuracy: -m0
Conclusion: CDDA 100%
Signature: CA7117975BD313C9A06D82789DE38D63B8E535A3
FILE: 04. Fallow Fields.flac
Size: 22604529 Hash: 3F499A4B3D7F7B542C8DE5F28969501F Accuracy: -m0
Conclusion: CDDA 100%
Signature: AAA0DC2B83E10A148267A556AAF329092F358359
FILE: 03. Snow Falling Softly.flac
Size: 21604966 Hash: 5C291C610B77D1B0A84F10265A8BD4F5 Accuracy: -m0
Conclusion: CDDA 58%
Signature: 097C0EA115409B497CCFD24639E6B3DF656B9AA3
FILE: 02. Ascend.flac
Size: 17700113 Hash: B5B5557BFBCF8A2F52657688459711B1 Accuracy: -m0
Conclusion: CDDA 99%
Signature: 2CAF9FCA9D9E50C48ED275A99E135AF8AFC918BD
FILE: 01. Birka.flac
Size: 19504714 Hash: E58872A5A32B1338ADD27821A4886065 Accuracy: -m0
Conclusion: CDDA 62%
Signature: 52AA3DD7F8BD44AC54BF63C2CB58B3ED25137DE0
Вверх