• Для скачивания альбомов c Облако Mail.Ru и Яндекс.Диск на нашем сайте необходимо зарегистрироваться.
  • Заказать необходимый альбом Вы можете в нашем специальном разделе "Стол заказов ".
Thom Yorke - Suspiria (Music for the Luca Guadagnino Film) (2018) [WEB / FLAC / lossless]

Thom Yorke - Suspiria (Music for the Luca Guadagnino Film) (2018) [WEB / FLAC / lossless]

нет прав для скачивания с cloud.mail.ru

Исполнитель: Thom Yorke
Альбом: Suspiria (Music for the Luca Guadagnino Film)
Носитель: WEB альбом
Дата выпуска: 2018
Жанр: Soundtrack
Формат: FLAC (tracks)
Битрейт: 445-877 kbps
Продолжительность: 01:20:27
Скачать: filehost | turbobit | dfiles
Пароль на архив: grandorchestra

01. A Storm That Took Everything [00:01:47]
02.
The Hooks [00:03:18]
03.
Suspirium [00:03:21]
04.
Belongings Thrown In A River [00:01:27]
05.
Has Ended [00:04:56]
06.
Klemperer Walks [00:01:38]
07.
Open Again [00:02:49]
08.
Sabbath Incantation [00:03:06]
09.
The Inevitable Pull [00:01:36]
10.
Olga's Destruction (Volk Tape) [00:02:58]
11.
The Conjuring Of Anke [00:02:16]
12.
A Light Green [00:01:48]
13.
Unmade [00:04:27]
14.
The Jumps [00:02:38]
15.
Volk [00:06:24]
16.
The Universe Is Indifferent [00:04:48]
17.
The Balance Of Things [00:01:08]
18.
A Soft Hand Across Your Face [00:00:44]
19.
Suspirium Finale [00:07:03]
20.
A Choir Of One [00:14:01]
21.
Synthesizer Speaks [00:00:58]
22.
The Room Of Compartments [00:01:14]
23.
An Audition [00:00:34]
24.
Voiceless Terror [00:02:30]
25.
The Epilogue [00:02:46]

foobar2000 1.3.9 / Замер динамического диапазона (DR) 1.1.1
Дата отчёта: 2018-10-26 23:24:26

--------------------------------------------------------------------------------
Анализ: Thom Yorke / Suspiria (Music for the Luca Guadagnino Film)
--------------------------------------------------------------------------------

DR Пики RMS Продолжительность трека
--------------------------------------------------------------------------------
DR9 -0.49 дБ -12.25 дБ 1:48 01-A Storm That Took Everything
DR10 -0.49 дБ -16.56 дБ 3:18 02-The Hooks
DR9 -0.49 дБ -11.64 дБ 3:22 03-Suspirium
DR7 -0.49 дБ -10.81 дБ 1:28 04-Belongings Thrown In A River
DR5 -0.46 дБ -8.23 дБ 4:56 05-Has Ended
DR7 -0.49 дБ -10.13 дБ 1:39 06-Klemperer Walks
DR6 -0.47 дБ -10.26 дБ 2:50 07-Open Again
DR11 -1.24 дБ -17.16 дБ 3:07 08-Sabbath Incantation
DR5 -0.50 дБ -7.97 дБ 1:37 09-The Inevitable Pull
DR6 -0.49 дБ -8.48 дБ 2:58 10-Olga's Destruction (Volk Tape)
DR9 -0.52 дБ -12.96 дБ 2:16 11-The Conjuring Of Anke
DR6 -0.49 дБ -10.54 дБ 1:49 12-A Light Green
DR7 -0.49 дБ -10.32 дБ 4:27 13-Unmade
DR8 -0.52 дБ -13.94 дБ 2:38 14-The Jumps
DR7 -0.31 дБ -10.48 дБ 6:24 15-Volk
DR7 -0.46 дБ -10.55 дБ 4:49 16-The Universe Is Indifferent
DR9 -0.50 дБ -14.32 дБ 1:08 17-The Balance Of Things
DR6 -0.51 дБ -9.31 дБ 0:44 18-A Soft Hand Across Your Face
DR7 -0.49 дБ -11.55 дБ 7:03 19-Suspirium Finale
DR8 -0.50 дБ -11.98 дБ 14:02 20-A Choir Of One
DR13 -0.50 дБ -17.24 дБ 0:59 21-Synthesizer Speaks
DR7 -0.49 дБ -9.82 дБ 1:15 22-The Room Of Compartments
DR9 -0.48 дБ -15.49 дБ 0:34 23-An Audition
DR8 -1.09 дБ -13.64 дБ 2:30 24-Voiceless Terror
DR3 -0.32 дБ -7.82 дБ 2:46 25-The Epilogue
--------------------------------------------------------------------------------

Количество треков: 25
Реальные значения DR: DR8

Частота: 44100 Гц
Каналов: 2
Разрядность: 16
Битрейт: 693 кбит/с
Кодек: FLAC
================================================================================
-----------------------

DON'T MODIFY THIS FILE

-----------------------

PERFORMER: auCDtect Task Manager, ver. 1.6.0 RC1 build 1.6.0.1
Copyright (c) 2008-2010 y-soft. All rights reserved
http://y-soft.org

ANALYZER: auCDtect: CD records authenticity detector, version 0.8.2
Copyright (c) 2004 Oleg Berngardt. All rights reserved.
Copyright (c) 2004 Alexander Djourik. All rights reserved.


FILE: 25. The Epilogue.flac
Size: 14563458 Hash: 835A038C7F683FFD4604C9C27D6449A0 Accuracy: -m0
Conclusion: CDDA 100%
Signature: 3AADB447A714D11FF515EFA2FAB86D5F056A26EF
FILE: 24. Voiceless Terror.flac
Size: 16621883 Hash: 8694108E905BFC77BFC4459FF4C9B927 Accuracy: -m0
Conclusion: CDDA 100%
Signature: 5D7AB15C6D006A0E58FCDE8DB9F2D808CE42D78F
FILE: 23. An Audition.flac
Size: 2969499 Hash: F3535ED5D9AB5DA23D7A37B39802A8FD Accuracy: -m0
Conclusion: CDDA 99%
Signature: 0101139A7CC7BC9498CA35252E3F1D5828968778
FILE: 22. The Room Of Compartments.flac
Size: 6150471 Hash: 0BDF4F8A7DCB7F1F27A130B386F58AC1 Accuracy: -m0
Conclusion: CDDA 99%
Signature: E8142AB320829F05EBC3F8F18D1993E8F11700B0
FILE: 21. Synthesizer Speaks.flac
Size: 3981022 Hash: 757081443BE29F64128FA3EF365B045F Accuracy: -m0
Conclusion: CDDA 100%
Signature: C806D2250B13886271376F6F2180913FC2464F9D
FILE: 20. A Choir Of One.flac
Size: 68119263 Hash: 0F90958C35EA4771D5BA434979B1F04D Accuracy: -m0
Conclusion: CDDA 100%
Signature: CBD75CDB283CCFE4E48D5DFE631320DE44A6EBF9
FILE: 19. Suspirium Finale.flac
Size: 38028010 Hash: 1122F93952028B15377DEEB5033111CC Accuracy: -m0
Conclusion: CDDA 100%
Signature: 8C3067CEDDAA276EA63AFED1E25079614375205F
FILE: 18. A Soft Hand Across Your Face.flac
Size: 3507044 Hash: CFE2950E32860A8BB57623C6C472EFE9 Accuracy: -m0
Conclusion: CDDA 99%
Signature: D3BFDB01BDE95E0EC7DF2EA7E026280BB6467B7A
FILE: 17. The Balance Of Things.flac
Size: 5706499 Hash: 840F3927D4BA3D62119A48BE61EAD619 Accuracy: -m0
Conclusion: CDDA 100%
Signature: 8D6A3E8365AD541878ED8C11066582936DDF2699
FILE: 16. The Universe Is Indifferent.flac
Size: 29092438 Hash: DF9D86D627985AA3C2AAFE7F7C523D4B Accuracy: -m0
Conclusion: CDDA 99%
Signature: A7E1CFF7479263F48703DF380EFB3BB4DB4CE922
FILE: 15. Volk.flac
Size: 31891251 Hash: 6BBB8588B10CF48762A534E3D5E53846 Accuracy: -m0
Conclusion: CDDA 100%
Signature: 37525FE2302063AB1A27654338EB06FF21436238
FILE: 14. The Jumps.flac
Size: 8957645 Hash: 0758A093829C514879390EC35DAEEA35 Accuracy: -m0
Conclusion: CDDA 100%
Signature: 7BDC749E05315996C30B865F92301044FE296854
FILE: 13. Unmade.flac
Size: 23880521 Hash: AF1CD9912BB2F51B1FAA1E4DF2C7F41A Accuracy: -m0
Conclusion: CDDA 99%
Signature: 2201EFE80DDB27988A045AC2DB812AC7929C337A
FILE: 12. A Light Green.flac
Size: 9152392 Hash: A276CF327345A0CAC38D46509A1EE0DE Accuracy: -m0
Conclusion: CDDA 100%
Signature: 76B0DE01B38C90B585A72A7E5D7B082E891190E3
FILE: 11. The Conjuring Of Anke.flac
Size: 10540659 Hash: 3CA37604E1723E92AF6AE92168820745 Accuracy: -m0
Conclusion: CDDA 100%
Signature: 3F1A358463B42F68CC9C01F503E5CD7D4B48A351
FILE: 10. Olga's Destruction (Volk Tape).flac
Size: 14249841 Hash: 36D28E938447414496F9418B68685EA1 Accuracy: -m0
Conclusion: CDDA 100%
Signature: 00290619FFF3B3C42FA74E3194ECEDFF2411AD9E
FILE: 09. The Inevitable Pull.flac
Size: 6834779 Hash: 8E005945B28A41A7908E0F2F201060B1 Accuracy: -m0
Conclusion: CDDA 100%
Signature: 4E0085ED861FCA5EE42A51473E94152E54759104
FILE: 08. Sabbath Incantation.flac
Size: 13875931 Hash: F98737A346F671044C9059AD5183BE05 Accuracy: -m0
Conclusion: CDDA 99%
Signature: 56660D87A71F1F20B8C57DA6BBF8B6A3ED9A0990
FILE: 07. Open Again.flac
Size: 16250629 Hash: AF06DC7EDE36431081C803D1853F444C Accuracy: -m0
Conclusion: CDDA 100%
Signature: ADD0DA23812A1B1EFEEA2833B5F05E77F00656A6
FILE: 06. Klemperer Walks.flac
Size: 10829796 Hash: 8BD18B810B4988E9B7F2DD709BD3D946 Accuracy: -m0
Conclusion: CDDA 100%
Signature: A2911B6E9238C6606396FA6F25868D1697BE4346
FILE: 05. Has Ended.flac
Size: 29192929 Hash: B8B29C0CF5DB4DBF262DA1F7A01278DA Accuracy: -m0
Conclusion: CDDA 100%
Signature: D7260B1B8DC62BFE50937D2095112E586835814B
FILE: 04. Belongings Thrown In A River.flac
Size: 9526145 Hash: 51F5E021AEC60EDF178E8B33F7B3F5A6 Accuracy: -m0
Conclusion: CDDA 100%
Signature: 4E808F9FDAB147652B7798F1239F3A3F76AE6760
FILE: 03. Suspirium.flac
Size: 16579843 Hash: 64C6FFC5D3622D41DF3457F0D66457D8 Accuracy: -m0
Conclusion: CDDA 100%
Signature: 5009CC4D93CECBFDEC39BBB99298C54800C4A112
FILE: 02. The Hooks.flac
Size: 13959159 Hash: 0E9512D001BF067ED0CEB4BBEA1C938A Accuracy: -m0
Conclusion: CDDA 100%
Signature: 6D40E9E914064CF5A234C4A3203D45E26CF14332
FILE: 01. A Storm That Took Everything.flac
Size: 9607745 Hash: 884E58CFF26AD0FE56E203F385792792 Accuracy: -m0
Conclusion: CDDA 100%
Signature: 2A4728C0ABCC7B0026FA67A6E5579A8E2466529A
Вверх