• Для скачивания альбомов c Облако Mail.Ru и Яндекс.Диск на нашем сайте необходимо зарегистрироваться.
  • Заказать необходимый альбом Вы можете в нашем специальном разделе "Стол заказов ".
Robyn - Honey (2018) [WEB / FLAC / lossless]

Robyn - Honey (2018) [WEB / FLAC / lossless]

нет прав для скачивания с cloud.mail.ru

Исполнитель: Robyn
Альбом: Honey
Носитель: WEB альбом
Дата выпуска: 2018
Жанр: Pop
Формат: FLAC (tracks)
Битрейт: 779-925 kbps
Продолжительность: 00:40:27
Скачать: filehost | turbobit | dfiles
Пароль на архив: grandorchestra

Треклист:
01. Missing U [00:04:57]
02.
Human Being [00:03:46]
03.
Because It's In The Music [00:04:34]
04.
Baby Forgive Me [00:04:16]
05.
Send To Robin Immediately [00:03:59]
06.
Honey [00:04:54]
07.
Between The Lines [00:04:05]
08.
Beach2k20 [00:05:29]
09.
Ever Again [00:04:24]

foobar2000 1.3.9 / Замер динамического диапазона (DR) 1.1.1
Дата отчёта: 2018-10-27 14:32:40

--------------------------------------------------------------------------------
Анализ: Robyn, Zhala / Honey (1)
Robyn / Honey (2-9)
--------------------------------------------------------------------------------

DR Пики RMS Продолжительность трека
--------------------------------------------------------------------------------
DR6 -0.09 дБ -8.32 дБ 3:46 2/2-Human Being
DR6 -0.10 дБ -7.32 дБ 4:57 1/9-Missing U
DR7 -0.06 дБ -7.85 дБ 4:34 3/9-Because It's In The Music
DR7 -0.08 дБ -7.88 дБ 4:16 4/9-Baby Forgive Me
DR5 -0.23 дБ -8.20 дБ 4:00 5/9-Send To Robin Immediately
DR4 -0.09 дБ -5.72 дБ 4:54 6/9-Honey
DR7 -0.07 дБ -8.86 дБ 4:06 7/9-Between The Lines
DR6 -0.07 дБ -9.22 дБ 5:29 8/9-Beach2k20
DR6 -0.06 дБ -7.90 дБ 4:24 9/9-Ever Again
--------------------------------------------------------------------------------

Количество треков: 9
Реальные значения DR: DR6

Частота: 44100 Гц
Каналов: 2
Разрядность: 16
Битрейт: 847 кбит/с
Кодек: FLAC
================================================================================
-----------------------

DON'T MODIFY THIS FILE

-----------------------

PERFORMER: auCDtect Task Manager, ver. 1.6.0 RC1 build 1.6.0.1
Copyright (c) 2008-2010 y-soft. All rights reserved
http://y-soft.org

ANALYZER: auCDtect: CD records authenticity detector, version 0.8.2
Copyright (c) 2004 Oleg Berngardt. All rights reserved.
Copyright (c) 2004 Alexander Djourik. All rights reserved.


FILE: 09. Ever Again.flac
Size: 28234945 Hash: 0375DE343116AE2055EF1BC79849B0A4 Accuracy: -m0
Conclusion: CDDA 100%
Signature: 4280E2F19A52E4AA114987AFB4E3B8137A9FA2B2
FILE: 08. Beach2k20.flac
Size: 35324114 Hash: EC389BBF89BEE131D6BB21F694B1DC66 Accuracy: -m0
Conclusion: CDDA 100%
Signature: 06C3E2BB0F2E99E4079C07D53D82E4452011376A
FILE: 07. Between The Lines.flac
Size: 26740786 Hash: D5522AECBA1E928BD35A56B2EBA38D1D Accuracy: -m0
Conclusion: CDDA 100%
Signature: C4E5E19F865EDC855C9C97AE613D819243901965
FILE: 06. Honey.flac
Size: 34138656 Hash: 5000BD6A6ACC5E5AE57897C3D4B7A22C Accuracy: -m0
Conclusion: CDDA 100%
Signature: 629BE29547F769FC8E7BF586B7C5DF33230E04BC
FILE: 05. Send To Robin Immediately.flac
Size: 23647923 Hash: 6799A358196AD4F6477D91B67AB7DACD Accuracy: -m0
Conclusion: CDDA 100%
Signature: 99C66ADECB3EA3DE2DA9372E349EAD713D24D09A
FILE: 04. Baby Forgive Me.flac
Size: 25861643 Hash: 7A54B4D0E1BFC5AE0C42E2FC15A3E7E9 Accuracy: -m0
Conclusion: CDDA 100%
Signature: C6BA1B0E00DDB98B8AA26B9499A4E02EFB1CCB8F
FILE: 03. Because It's In The Music.flac
Size: 30190872 Hash: 8D778EFAD1CC4BE3F34C8803FFDACA0D Accuracy: -m0
Conclusion: CDDA 100%
Signature: DD3904775E1ED45222EA90E05948EBA020D4175A
FILE: 02. Human Being.flac
Size: 22723733 Hash: C0B9274A7CC0B9834B6D4968198A9D28 Accuracy: -m0
Conclusion: CDDA 100%
Signature: CEBCF521B5EF068536E66DEFAA7E03BC08137AC6
FILE: 01. Missing U.flac
Size: 34676564 Hash: 892D4C0F8C92DB20526841170EFA545E Accuracy: -m0
Conclusion: CDDA 100%
Signature: 10DDFFA3C158D4AA12596A35B16BE94A4CCCECDE
Вверх