• Для скачивания альбомов c Облако Mail.Ru и Яндекс.Диск на нашем сайте необходимо зарегистрироваться.
  • Заказать необходимый альбом Вы можете в нашем специальном разделе "Стол заказов ".
Queen - Bohemian Rhapsody (The Original Soundtrack) (2018) [WEB / FLAC / lossless]

Queen - Bohemian Rhapsody (The Original Soundtrack) (2018) [WEB / FLAC / lossless]

нет прав для скачивания с cloud.mail.ru
  • Автор rdf
  • Дата создания
  • Рекомендуемый

Исполнитель: Queen
Альбом: Bohemian Rhapsody (The Original Soundtrack)
Носитель: WEB альбом
Дата выпуска: 2018
Жанр: Rock
Формат: FLAC (tracks)
Битрейт: 785-993 kbps
Продолжительность: 01:19:54
Скачать: filehost | turbobit | dfiles
Пароль на архив: grandorchestra

01. 20th Century Fox Fanfare [00:00:25]
02. Somebody To Love [00:04:55]
03. Doing All Right (...Revisited) [00:03:16]
04. Keep Yourself Alive (Live At The Rainbow) [00:03:56]
05. Killer Queen [00:02:59]
06. Fat Bottomed Girls (Live In Paris) [00:04:37]
07. Bohemian Rhapsody [00:05:54]
08. Now I'm Here (Live At The Hammersmith Odeon) [00:04:25]
09. Crazy Little Thing Called Love [00:02:43]
10. Love Of My Life (Live At Rock In Rio) [00:04:28]
11. We Will Rock You (Movie Mix) [00:02:09]
12. Another One Bites The Dust [00:03:34]
13. I Want To Break Free [00:03:43]
14. Under Pressure (Remastered) (feat. David Bowie) [00:04:04]
15. Who Wants To Live Forever [00:05:14]
16. Bohemian Rhapsody (Live Aid) [00:02:27]
17. Radio Ga Ga (Live Aid) [00:04:05]
18. Ay-Oh (Live Aid) [00:00:41]
19. Hammer To Fall (Live Aid) [00:04:03]
20. We Are The Champions (Live Aid) [00:03:57]
21. Don't Stop Me Now (...Revisited) [00:03:37]
22. The Show Must Go On [00:04:31]

foobar2000 1.3.9 / Замер динамического диапазона (DR) 1.1.1
Дата отчёта: 2018-10-21 17:35:36

--------------------------------------------------------------------------------
Анализ: Queen / Bohemian Rhapsody (The Original Soundtrack) (1-21)
Smile / Bohemian Rhapsody (The Original Soundtrack) (22)
--------------------------------------------------------------------------------

DR Пики RMS Продолжительность трека
--------------------------------------------------------------------------------
DR4 -0.02 дБ -8.73 дБ 0:25 01-20th Century Fox Fanfare
DR8 -0.08 дБ -10.71 дБ 4:56 02-Somebody To Love
DR7 0.00 дБ -8.39 дБ 3:56 04-Keep Yourself Alive (Live At The Rainbow)
DR7 -0.54 дБ -10.00 дБ 2:59 05-Killer Queen
DR8 0.00 дБ -9.41 дБ 4:38 06-Fat Bottomed Girls (Live In Paris)
DR8 -0.09 дБ -12.50 дБ 5:55 07-Bohemian Rhapsody
DR8 -0.08 дБ -10.04 дБ 4:26 08-Now I'm Here (Live At The Hammersmith Odeon)
DR7 0.00 дБ -9.20 дБ 2:43 09-Crazy Little Thing Called Love
DR11 -0.10 дБ -14.80 дБ 4:29 10-Love Of My Life (Live At Rock In Rio)
DR6 0.00 дБ -8.67 дБ 2:09 11-We Will Rock You (Movie Mix)
DR8 0.00 дБ -10.30 дБ 3:35 12-Another One Bites The Dust
DR8 0.00 дБ -10.52 дБ 3:43 13-I Want To Break Free
DR7 0.00 дБ -10.76 дБ 4:04 14-Under Pressure (Remastered) (feat. David Bowie)
DR7 0.00 дБ -11.65 дБ 5:14 15-Who Wants To Live Forever
DR9 -0.09 дБ -10.28 дБ 2:28 16-Bohemian Rhapsody (Live Aid)
DR9 -0.09 дБ -10.10 дБ 4:06 17-Radio Ga Ga (Live Aid)
DR10 -0.12 дБ -12.31 дБ 0:41 18-Ay-Oh (Live Aid)
DR9 -0.08 дБ -9.99 дБ 4:04 19-Hammer To Fall (Live Aid)
DR8 -0.09 дБ -9.10 дБ 3:57 20-We Are The Champions (Live Aid)
DR8 -0.07 дБ -10.24 дБ 3:38 21-Don't Stop Me Now (...Revisited)
DR7 0.00 дБ -10.18 дБ 4:32 22-The Show Must Go On
DR9 -0.03 дБ -11.37 дБ 3:17 03-Doing All Right (...Revisited)
--------------------------------------------------------------------------------

Количество треков: 22
Реальные значения DR: DR8

Частота: 44100 Гц
Каналов: 2
Разрядность: 16
Битрейт: 795 кбит/с
Кодек: FLAC
================================================================================
-----------------------

DON'T MODIFY THIS FILE

-----------------------

PERFORMER: auCDtect Task Manager, ver. 1.6.0 RC1 build 1.6.0.1
Copyright (c) 2008-2010 y-soft. All rights reserved
http://y-soft.org

ANALYZER: auCDtect: CD records authenticity detector, version 0.8.2
Copyright (c) 2004 Oleg Berngardt. All rights reserved.
Copyright (c) 2004 Alexander Djourik. All rights reserved.


FILE: 22. The Show Must Go On.flac
Size: 32103837 Hash: 880EF7BBD2836FB650C2F7AD0A336F6E Accuracy: -m0
Conclusion: CDDA 100%
Signature: 6700A9C4E8C0476BD6EC0A886D920275A8D9DE49
FILE: 21. Don't Stop Me Now (...Revisited).flac
Size: 27486360 Hash: BC39A95C3C21046E686DDE6576D77370 Accuracy: -m0
Conclusion: CDDA 100%
Signature: 5B341FA8F0EB319E4E008250CD4525497B415EF0
FILE: 20. We Are The Champions (Live Aid).flac
Size: 27864358 Hash: A4DFBF0F66D6A8356E3189E9531542D0 Accuracy: -m0
Conclusion: CDDA 100%
Signature: 8D0772FD088191940A16D3A04DC84EE2A0EDF780
FILE: 19. Hammer To Fall (Live Aid).flac
Size: 29839681 Hash: 91C4EE6F9DD7B14B2443CE557B940D5A Accuracy: -m0
Conclusion: CDDA 99%
Signature: C860FD1E3C3E7B24F9D0F238E32BE20805AC0BDB
FILE: 18. Ay-Oh (Live Aid).flac
Size: 4951528 Hash: EC64D0CB00933C90AD274F8CEA4E04CE Accuracy: -m0
Conclusion: CDDA 100%
Signature: D6834958FF0E25E41985742E29976F50DF5DB9EE
FILE: 17. Radio Ga Ga (Live Aid).flac
Size: 30519161 Hash: 6F6AB90DE99AFB31CCFC473C1E03E28A Accuracy: -m0
Conclusion: CDDA 99%
Signature: 9659646E22D2F33A5C7B80B805CB74E5CAA07805
FILE: 16. Bohemian Rhapsody (Live Aid).flac
Size: 17143383 Hash: B1C601594D5922DEBB334366CA9AAAF8 Accuracy: -m0
Conclusion: CDDA 100%
Signature: 6ED07E54BE9019FB3B028783FF9EBC73AEB3FBC6
FILE: 15. Who Wants To Live Forever.flac
Size: 31286074 Hash: AF4925D6CCEE1929B19EBF18F2E58DA6 Accuracy: -m0
Conclusion: CDDA 100%
Signature: B2521F2BFA6079D89D075884D66A0C4D9742CF30
FILE: 14. Under Pressure (Remastered) (feat. David Bowie).flac
Size: 28669943 Hash: 949E5314ABC4ED6848B1ECF65D963B73 Accuracy: -m0
Conclusion: CDDA 100%
Signature: B75FA95E8DF02DB258025480DE14AFE30F5694CC
FILE: 13. I Want To Break Free.flac
Size: 26512685 Hash: F5BEE2A694405156E95EA8BAB9FF596E Accuracy: -m0
Conclusion: CDDA 100%
Signature: E45802FCFC65EF92467A2918D3E4A6C7803197CB
FILE: 12. Another One Bites The Dust.flac
Size: 24050042 Hash: 2CAD5202D9BAC2855180D5545FEE37E6 Accuracy: -m0
Conclusion: CDDA 100%
Signature: 02BF8E34C2DEBCC2D023ECFC136100258F1F6269
FILE: 11. We Will Rock You (Movie Mix).flac
Size: 15500463 Hash: FE9A0DE770D98F5A7975D6EBF8BF9C10 Accuracy: -m0
Conclusion: CDDA 100%
Signature: 226ADC5D5BEB449A5B76FB09298539B69775069F
FILE: 10. Love Of My Life (Live At Rock In Rio).flac
Size: 28331304 Hash: 3CC95F89FAB7C10829D3BB3C8E4DEC50 Accuracy: -m0
Conclusion: CDDA 100%
Signature: 38A6AFF5F3F8D295C48E0CC874C065B1E02F1AD0
FILE: 09. Crazy Little Thing Called Love.flac
Size: 19509759 Hash: 2A2372EA1C82218C6B6707D66B30546E Accuracy: -m0
Conclusion: CDDA 100%
Signature: 15570F115A8BEEB8779481700254880000F98E27
FILE: 08. Now I'm Here (Live At The Hammersmith Odeon).flac
Size: 32569992 Hash: 7C9101C449106D4D9C76C415781D766E Accuracy: -m0
Conclusion: CDDA 100%
Signature: 9380E62F246589E974BA8D6DE76F84292A1EA263
FILE: 07. Bohemian Rhapsody.flac
Size: 37515248 Hash: 2DF9AFA88E45155E05AC5777F7DE9561 Accuracy: -m0
Conclusion: CDDA 100%
Signature: C49223B66F8891A1388F0D19B8077EC9ADCC9F63
FILE: 06. Fat Bottomed Girls (Live In Paris).flac
Size: 33303777 Hash: 85A463987AAFBBFF4D4635BF27E527E4 Accuracy: -m0
Conclusion: CDDA 100%
Signature: 66D9B14157FD88944473A462143D4B406604531E
FILE: 05. Killer Queen.flac
Size: 20430986 Hash: DE879CFC81139321685B6B17F523A5AC Accuracy: -m0
Conclusion: CDDA 100%
Signature: EBB27FE0D80C9A217F8AF2151A66C32BA545ABFE
FILE: 04. Keep Yourself Alive (Live At The Rainbow).flac
Size: 29582466 Hash: 39AD3E099EFBF4E644B19AD149E0B419 Accuracy: -m0
Conclusion: CDDA 100%
Signature: 4F0A1D32F9FD5DB497BD3033BE64256F4B4B6A6F
FILE: 03. Doing All Right (...Revisited).flac
Size: 19978143 Hash: 67255C1E998472FA4268403EDF61BF86 Accuracy: -m0
Conclusion: CDDA 100%
Signature: 64BE754969E7081EFBB0D730756BB78C80A7415E
FILE: 02. Somebody To Love.flac
Size: 35789043 Hash: 2EA5301AA56472AF72E3390EB33D2F96 Accuracy: -m0
Conclusion: CDDA 100%
Signature: CBBC08969E117F53B6D866C041CD762422BFB561
FILE: 01. 20th Century Fox Fanfare.flac
Size: 3342277 Hash: 330F8D4995DBC80860706B8030EDA260 Accuracy: -m0
Conclusion: CDDA 100%
Signature: 987A055D252B22EC04C35E9129B81EF7587AEF81
Вверх