• Для скачивания альбомов c Облако Mail.Ru и Яндекс.Диск на нашем сайте необходимо зарегистрироваться.
  • Заказать необходимый альбом Вы можете в нашем специальном разделе "Стол заказов ".
Michael Logozar - Kaleidoscope (2018) [WEB / FLAC / lossless]

Michael Logozar - Kaleidoscope (2018) [WEB / FLAC / lossless]

нет прав для скачивания с cloud.mail.ru

Исполнитель: Michael Logozar
Альбом: Kaleidoscope
Носитель: WEB альбом
Дата выпуска: 2018
Жанр: New Age
Формат: FLAC (tracks)
Битрейт: 451-582 kbps
Продолжительность: 00:42:09
Скачать: dfiles | douploads
Пароль на архив: grandorchestra

Треклист:
01. Sundrops [00:03:14]
02.
Afterglow [00:03:47]
03.
Rolling Tides [00:03:02]
04.
The First Bloom [00:02:18]
05.
Continuum [00:02:03]
06.
Still Frames [00:02:59]
07.
Silver Light [00:02:27]
08.
Sunset Ride [00:02:42]
09.
In the Distance [00:02:46]
10.
Marionette [00:03:31]
11.
The Last Leaf [00:02:34]
12.
Kaleidoscope [00:01:48]
13.
The Optimist [00:02:09]
14.
On Still Water [00:03:23]
15.
Every Dream [00:03:21]

foobar2000 1.3.9 / Замер динамического диапазона (DR) 1.1.1
Дата отчёта: 2018-11-02 06:48:53

--------------------------------------------------------------------------------
Анализ: Michael Logozar / Kaleidoscope
--------------------------------------------------------------------------------

DR Пики RMS Продолжительность трека
--------------------------------------------------------------------------------
DR9 -1.02 дБ -13.37 дБ 3:15 01-Sundrops
DR12 -1.02 дБ -17.54 дБ 3:48 02-Afterglow
DR11 -1.02 дБ -15.65 дБ 3:02 03-Rolling Tides
DR10 -1.02 дБ -15.57 дБ 2:18 04-The First Bloom
DR10 -1.04 дБ -14.52 дБ 2:03 05-Continuum
DR10 -1.02 дБ -15.41 дБ 2:59 06-Still Frames
DR12 -1.02 дБ -16.96 дБ 2:28 07-Silver Light
DR10 -1.02 дБ -14.62 дБ 2:42 08-Sunset Ride
DR12 -1.02 дБ -17.50 дБ 2:46 09-In the Distance
DR9 -1.00 дБ -14.02 дБ 3:32 10-Marionette
DR13 -1.02 дБ -18.16 дБ 2:34 11-The Last Leaf
DR12 -1.04 дБ -17.03 дБ 1:48 12-Kaleidoscope
DR10 -1.02 дБ -15.60 дБ 2:09 13-The Optimist
DR13 -1.02 дБ -18.23 дБ 3:23 14-On Still Water
DR11 -1.02 дБ -16.85 дБ 3:22 15-Every Dream
--------------------------------------------------------------------------------

Количество треков: 15
Реальные значения DR: DR11

Частота: 44100 Гц
Каналов: 2
Разрядность: 16
Битрейт: 510 кбит/с
Кодек: FLAC
================================================================================
-----------------------

DON'T MODIFY THIS FILE

-----------------------

PERFORMER: auCDtect Task Manager, ver. 1.6.0 RC1 build 1.6.0.1
Copyright (c) 2008-2010 y-soft. All rights reserved
http://y-soft.org

ANALYZER: auCDtect: CD records authenticity detector, version 0.8.2
Copyright (c) 2004 Oleg Berngardt. All rights reserved.
Copyright (c) 2004 Alexander Djourik. All rights reserved.


FILE: 15. Every Dream.flac
Size: 12984657 Hash: F26FA7D786CD369B085EB5BF324D297A Accuracy: -m0
Conclusion: MPEG 92%
Signature: 0CF6634341F021EFAC22707168BCB14C94898FC9
FILE: 14. On Still Water.flac
Size: 13522314 Hash: 6910C0DB2E9D776677986AECD4FA331A Accuracy: -m0
Conclusion: CDDA 92%
Signature: 1FBFBD0579D6B3E0E9F6D288E4FEDF8CD88C648C
FILE: 13. The Optimist.flac
Size: 8453138 Hash: 471523AF25585DDBE0652584561D872C Accuracy: -m0
Conclusion: CDDA 43%
Signature: B01EC6CA408F1B2A213FEEB466D300961BF97A45
FILE: 12. Kaleidoscope.flac
Size: 6990579 Hash: BF4EC94119C677F36D68CC66633D0A83 Accuracy: -m0
Conclusion: MPEG 97%
Signature: 346C91C68AA47588CBF4CE692A2D4D67DC647EA9
FILE: 11. The Last Leaf.flac
Size: 8810962 Hash: FBED26AFCFD69F3C353B1A870972803C Accuracy: -m0
Conclusion: CDDA 58%
Signature: 04BB8A940289E78C51AF86AC16AA6B60DA72D14A
FILE: 10. Marionette.flac
Size: 13892967 Hash: 261DEA5B2CA957AC335448A83D435579 Accuracy: -m0
Conclusion: CDDA 42%
Signature: B18390DAB99ACB37A87801813FF710EC31B5A4AD
FILE: 09. In The Distance.flac
Size: 10924614 Hash: 37C78C77C8FA8A75E34FF5DF2BA3111D Accuracy: -m0
Conclusion: CDDA 58%
Signature: FB4FE1A1047166FC306D708604E0B37314DA6C18
FILE: 08. Sunset Ride.flac
Size: 10398040 Hash: 73B808F052B1D9CAD3B5C783244E8B1B Accuracy: -m0
Conclusion: CDDA 86%
Signature: E0E41F215E954DF1AAA23C96BB05ECC91202FDC0
FILE: 07. Silver Light.flac
Size: 9551871 Hash: 369A965BD86230FF09AFC4A3AF8D2B76 Accuracy: -m0
Conclusion: CDDA 43%
Signature: A77F5BC594AD008ED0F687CFB8EDCCB32978F9D7
FILE: 06. Still Frames.flac
Size: 11799146 Hash: 08DE9A2423579C00F1690CCD58EC88E1 Accuracy: -m0
Conclusion: CDDA 42%
Signature: 426F8AEF1830B1EF7C975079D343249252468DE9
FILE: 05. Continuum.flac
Size: 8141277 Hash: 431F0AB4DDEEB088E3CCBF8CFD4739D3 Accuracy: -m0
Conclusion: CDDA 100%
Signature: AEF59DCED6EC30A9607C5B3EC1E12876B9A90B88
FILE: 04. The First Bloom.flac
Size: 9354191 Hash: E9CF88536790AE05BB9DA2F2CD62AE66 Accuracy: -m0
Conclusion: CDDA 92%
Signature: 9C5902AA788D8430EAA40EAE8FEF9C511ADB22BC
FILE: 03. Rolling Tides.flac
Size: 12196021 Hash: 8795F6D1AA4A371021B2E59FA92A6A11 Accuracy: -m0
Conclusion: CDDA 43%
Signature: F7F3A049C984F350A5482E52C1D90F49EE0DF8A9
FILE: 02. Afterglow.flac
Size: 14021107 Hash: 56BDC44DEA883E1438EBBF23D7E563E1 Accuracy: -m0
Conclusion: MPEG 89%
Signature: 52DB13F508CD6751A258C28456C12D8314ACA5B4
FILE: 01. Sundrops.flac
Size: 14193803 Hash: CA1A02950D0B9B7393549DDE31B3FCBB Accuracy: -m0
Conclusion: CDDA 92%
Signature: FD3BB704412DB6BB30785D446B13376C3C6AB162
Вверх