• Для скачивания альбомов c Облако Mail.Ru и Яндекс.Диск на нашем сайте необходимо зарегистрироваться.
  • Заказать необходимый альбом Вы можете в нашем специальном разделе "Стол заказов ".
MØ - Forever Neverland (2018) [WEB / FLAC / lossless]

MØ - Forever Neverland (2018) [WEB / FLAC / lossless]

нет прав для скачивания с cloud.mail.ru

Исполнитель:
Альбом: Forever Neverland
Носитель: WEB альбом
Дата выпуска: 2018
Жанр: Pop
Формат: FLAC (tracks)
Битрейт: 767-994 kbps
Продолжительность: 00:44:55
Скачать: filehost | turbobit | dfiles
Пароль на архив: grandorchestra

Треклист:
01. Intro (Purple Like the Summer Rain) [00:00:45]
02.
Way Down [00:03:08]
03.
I Want You [00:03:16]
04.
Blur [00:03:04]
05.
Nostalgia [00:03:46]
06.
Sun In Our Eyes [00:03:37]
07.
Mercy (feat. What So Not & Two Feet) [00:03:41]
08.
If It's Over (feat. Charli XCX) [00:03:39]
09.
West Hollywood [00:01:07]
10.
Beautiful Wreck [00:03:49]
11.
Red Wine (feat. Empress Of) [00:03:22]
12.
Imaginary Friend [00:03:47]
13.
Trying to Be Good [00:03:46]
14.
Purple Like the Summer Rain [00:04:01]

foobar2000 1.3.9 / Замер динамического диапазона (DR) 1.1.1
Дата отчёта: 2018-10-21 21:23:11

--------------------------------------------------------------------------------
Анализ: MØ & Diplo / Forever Neverland (1)
MØ / Forever Neverland (2-14)
--------------------------------------------------------------------------------

DR Пики RMS Продолжительность трека
--------------------------------------------------------------------------------
DR4 -0.08 дБ -6.14 дБ 3:38 06-Sun In Our Eyes
DR11 -0.17 дБ -13.23 дБ 0:45 01-Intro (Purple Like the Summer Rain)
DR4 -0.17 дБ -6.48 дБ 3:08 02-Way Down
DR5 -0.08 дБ -7.69 дБ 3:16 03-I Want You
DR4 -0.17 дБ -7.90 дБ 3:05 04-Blur
DR5 -0.17 дБ -6.47 дБ 3:47 05-Nostalgia
DR5 -0.17 дБ -7.17 дБ 3:41 07-Mercy (feat. What So Not & Two Feet)
DR6 -0.17 дБ -7.55 дБ 3:39 08-If It's Over (feat. Charli XCX)
DR6 -0.17 дБ -9.48 дБ 1:08 09-West Hollywood
DR5 -0.08 дБ -7.97 дБ 3:49 10-Beautiful Wreck
DR5 -0.17 дБ -7.52 дБ 3:22 11-Red Wine (feat. Empress Of)
DR4 -0.17 дБ -6.46 дБ 3:47 12-Imaginary Friend
DR7 -0.17 дБ -9.40 дБ 3:47 13-Trying to Be Good
DR4 -0.17 дБ -6.90 дБ 4:02 14-Purple Like the Summer Rain
--------------------------------------------------------------------------------

Количество треков: 14
Реальные значения DR: DR5

Частота: 44100 Гц
Каналов: 2
Разрядность: 16
Битрейт: 931 кбит/с
Кодек: FLAC
================================================================================
-----------------------

DON'T MODIFY THIS FILE

-----------------------

PERFORMER: auCDtect Task Manager, ver. 1.6.0 RC1 build 1.6.0.1
Copyright (c) 2008-2010 y-soft. All rights reserved
http://y-soft.org

ANALYZER: auCDtect: CD records authenticity detector, version 0.8.2
Copyright (c) 2004 Oleg Berngardt. All rights reserved.
Copyright (c) 2004 Alexander Djourik. All rights reserved.


FILE: 14. Purple Like the Summer Rain.flac
Size: 28583095 Hash: 1BC5506D83694850B06175B30E04A43F Accuracy: -m0
Conclusion: CDDA 100%
Signature: 1BE6974E671DC690BBD389E8FD95FC2068B54F5A
FILE: 13. Trying to Be Good.flac
Size: 23039020 Hash: 85A2E36624CF90A07DA89B26D14DA084 Accuracy: -m0
Conclusion: CDDA 100%
Signature: 39E47A966EFC28CACAB541120CF1D55DBB52007E
FILE: 12. Imaginary Friend.flac
Size: 28711643 Hash: 2E48A1A2DE8EDFA137470CC27B9DF0CB Accuracy: -m0
Conclusion: CDDA 100%
Signature: C5A22E3FA667C0956B14B4215EFC159B6D6D1FB2
FILE: 11. Red Wine (feat. Empress Of).flac
Size: 25078958 Hash: 72DB1540ECBD69FDABD31A220574C50C Accuracy: -m0
Conclusion: CDDA 100%
Signature: D98FA85CE11AAB260512BD5617E7C2F75234EF0E
FILE: 10. Beautiful Wreck.flac
Size: 27391781 Hash: C8F568F42EAE354E8395813F56CF8AD8 Accuracy: -m0
Conclusion: CDDA 100%
Signature: 71F043211266193FB9FD0C4F013EDF7525F2FCD3
FILE: 09. West Hollywood.flac
Size: 7469369 Hash: E70E97D6764AF4C45375000EC0AF8163 Accuracy: -m0
Conclusion: CDDA 100%
Signature: 40A92B143B6D875E8C9CA981C0B1E19552C551EA
FILE: 08. If It's Over (feat. Charli XCX).flac
Size: 26846807 Hash: CE0721F5C740B491C7E413DD848151DE Accuracy: -m0
Conclusion: CDDA 100%
Signature: 0DF1A3B5BFD1F2E8CFEC6D3CEC4448B8C76AE17C
FILE: 07. Mercy (feat. What So Not & Two Feet).flac
Size: 26500466 Hash: 94FCD4BBF260717B406BA4B285469AB5 Accuracy: -m0
Conclusion: CDDA 99%
Signature: 918DF1DCCAB665F2841AF2B651B69D057D0762D5
FILE: 06. Sun In Our Eyes.flac
Size: 24753012 Hash: EEBD02CEF0163A510E3B92D424FD6CDB Accuracy: -m0
Conclusion: MPEG 95%
Signature: 429BF7805D2F7355A2C0AA93316F119B9240A28C
FILE: 05. Nostalgia.flac
Size: 28310245 Hash: E8482A678992C005DFAD192DE2286DBA Accuracy: -m0
Conclusion: CDDA 100%
Signature: CDF6D2B280E3E7170C0F1441B493B2A692984643
FILE: 04. Blur.flac
Size: 23207682 Hash: 3ABE2CCC8095951ACDA844D63911A2DA Accuracy: -m0
Conclusion: CDDA 100%
Signature: C95F0D7A3C222DCA57B024092F4D719A50813F8B
FILE: 03. I Want You.flac
Size: 22819455 Hash: 08BDD3B56A490629812BBA5D6291DE5B Accuracy: -m0
Conclusion: MPEG 95%
Signature: B2A1C05D161A27312DC2FB56E56C0027E72478CE
FILE: 02. Way Down.flac
Size: 23076582 Hash: 7C78E86F702F037E5F564F96217304B0 Accuracy: -m0
Conclusion: CDDA 100%
Signature: 901A8C638EEEF94814507A7F3118573786A714DC
FILE: 01. Intro (Purple Like the Summer Rain).flac
Size: 4788870 Hash: 6F871CDCC911CD97B2C6FC77FE78300A Accuracy: -m0
Conclusion: CDDA 100%
Signature: 116756F33A92838059426A90F1F05165F00EC53B
Вверх