• Для скачивания альбомов c Облако Mail.Ru и Яндекс.Диск на нашем сайте необходимо зарегистрироваться.
  • Заказать необходимый альбом Вы можете в нашем специальном разделе "Стол заказов ".
Lindsey Stirling - Warmer In The Winter (Deluxe Version) (2017) [WEB / FLAC / 24bit lossless]

Lindsey Stirling - Warmer In The Winter (Deluxe Version) (2017) [WEB / FLAC / 24bit lossless]

нет прав для скачивания с cloud.mail.ru

Исполнитель: Lindsey Stirling
Альбом: Warmer In The Winter (Deluxe Version)
Носитель: WEB альбом
Дата выпуска: 2017
Жанр: New Age
Формат: FLAC (tracks)
Битрейт: 1566-1909 kbps
Продолжительность: 00:49:50
Пароль на архив: grandorchestra

Треклист:
01. Dance Of The Sugar Plum Fairy [00:02:39]
02.
You’re A Mean One, Mr. Grinch (feat. Sabrina Carpenter) [00:02:48]
03.
Christmas C’mon (feat. Becky G) [00:03:50]
04.
Carol Of The Bells [00:02:48]
05.
Angels We Have Heard On High [00:04:22]
06.
I Saw Three Ships [00:02:35]
07.
Let It Snow [00:02:53]
08.
Warmer In The Winter (feat. Trombone Shorty) [00:02:55]
09.
What Child Is This [00:03:19]
10.
All I Want For Christmas [00:04:05]
11.
Time To Fall In Love (feat. Alex Gaskarth) [00:02:56]
12.
Jingle Bell Rock [00:03:48]
13.
Silent Night [00:03:57]
14.
We Three Gentlemen (Medley) [00:02:59]
15.
O Come, Emmanuel [00:03:52]

foobar2000 1.3.9 / Замер динамического диапазона (DR) 1.1.1
Дата отчёта: 2018-10-12 14:02:45

--------------------------------------------------------------------------------
Анализ: Lindsey Stirling / Warmer In The Winter (Deluxe Version)
--------------------------------------------------------------------------------

DR Пики RMS Продолжительность трека
--------------------------------------------------------------------------------
DR7 0.00 дБ -8.90 дБ 2:39 01-Dance Of The Sugar Plum Fairy
DR6 0.00 дБ -7.94 дБ 2:48 02-You’re A Mean One, Mr. Grinch (feat. Sabrina Carpenter)
DR7 0.00 дБ -8.12 дБ 3:50 03-Christmas C’mon (feat. Becky G)
DR6 0.00 дБ -8.69 дБ 2:48 04-Carol Of The Bells
DR9 0.00 дБ -12.57 дБ 4:22 05-Angels We Have Heard On High
DR9 0.00 дБ -11.94 дБ 2:36 06-I Saw Three Ships
DR7 0.00 дБ -9.76 дБ 2:54 07-Let It Snow
DR7 0.00 дБ -9.55 дБ 2:55 08-Warmer In The Winter (feat. Trombone Shorty)
DR10 0.00 дБ -14.09 дБ 3:19 09-What Child Is This
DR8 0.00 дБ -9.56 дБ 4:05 10-All I Want For Christmas
DR7 0.00 дБ -8.09 дБ 2:56 11-Time To Fall In Love (feat. Alex Gaskarth)
DR8 0.00 дБ -9.92 дБ 3:49 12-Jingle Bell Rock
DR11 -0.32 дБ -16.80 дБ 3:57 13-Silent Night
DR8 0.00 дБ -11.22 дБ 2:59 14-We Three Gentlemen (Medley)
DR10 0.00 дБ -14.20 дБ 3:52 15-O Come, Emmanuel
--------------------------------------------------------------------------------

Количество треков: 15
Реальные значения DR: DR8

Частота: 48000 Гц
Каналов: 2
Разрядность: 24
Битрейт: 1566 кбит/с
Кодек: FLAC
================================================================================
Вверх