• Для скачивания альбомов c Облако Mail.Ru и Яндекс.Диск на нашем сайте необходимо зарегистрироваться.
  • Заказать необходимый альбом Вы можете в нашем специальном разделе "Стол заказов ".
Greta Van Fleet - Anthem Of The Peaceful Army (2018) [WEB / FLAC / 24bit lossless]

Greta Van Fleet - Anthem Of The Peaceful Army (2018) [WEB / FLAC / 24bit lossless]

нет прав для скачивания с cloud.mail.ru

Исполнитель: Greta Van Fleet
Альбом: Anthem Of The Peaceful Army
Носитель: WEB альбом
Дата выпуска: 2018
Жанр: Rock
Формат: FLAC (tracks)
Битрейт: 1591-1743 kbps
Продолжительность: 00:49:33
Скачать: filehost | turbobit | dfiles
Пароль на архив: grandorchestra

Треклист:
01. Age Of Man [00:06:06]
02.
The Cold Wind [00:03:16]
03.
When The Curtain Falls [00:03:42]
04.
Watching Over [00:04:27]
05.
Lover, Leaver [00:03:34]
06.
You're The One [00:04:26]
07.
The New Day [00:03:44]
08.
Mountain Of The Sun [00:04:30]
09.
Brave New World [00:05:00]
10.
Anthem [00:04:41]
11.
Lover, Leaver (Taker, Believer) [00:06:01]

foobar2000 1.3.9 / Замер динамического диапазона (DR) 1.1.1
Дата отчёта: 2018-10-23 06:39:01

--------------------------------------------------------------------------------
Анализ: Greta Van Fleet / Anthem Of The Peaceful Army
--------------------------------------------------------------------------------

DR Пики RMS Продолжительность трека
--------------------------------------------------------------------------------
DR5 0.00 дБ -8.47 дБ 6:06 01-Age Of Man
DR7 0.00 дБ -8.05 дБ 3:17 02-The Cold Wind
DR5 0.00 дБ -7.33 дБ 3:43 03-When The Curtain Falls
DR6 -0.04 дБ -7.98 дБ 4:27 04-Watching Over
DR6 0.00 дБ -7.70 дБ 3:35 05-Lover, Leaver
DR7 0.00 дБ -9.57 дБ 4:27 06-You're The One
DR7 0.00 дБ -8.95 дБ 3:45 07-The New Day
DR5 0.00 дБ -6.81 дБ 4:31 08-Mountain Of The Sun
DR7 0.00 дБ -8.46 дБ 5:01 09-Brave New World
DR7 0.00 дБ -10.53 дБ 4:41 10-Anthem
DR7 0.00 дБ -8.05 дБ 6:01 11-Lover, Leaver (Taker, Believer)
--------------------------------------------------------------------------------

Количество треков: 11
Реальные значения DR: DR6

Частота: 44100 Гц
Каналов: 2
Разрядность: 24
Битрейт: 1628 кбит/с
Кодек: FLAC
================================================================================
Вверх