• Для скачивания альбомов c Облако Mail.Ru и Яндекс.Диск на нашем сайте необходимо зарегистрироваться.
  • Заказать необходимый альбом Вы можете в нашем специальном разделе "Стол заказов ".
Field Works - Glen Rose Formation (2018) [WEB / FLAC / lossless]

Field Works - Glen Rose Formation (2018) [WEB / FLAC / lossless]

нет прав для скачивания с cloud.mail.ru

Исполнитель: Field Works
Альбом: Glen Rose Formation
Носитель: WEB альбом
Дата выпуска: 2018
Жанр: Alternative
Формат: FLAC (tracks)
Битрейт: 616-850 kbps
Продолжительность: 00:52:48
Пароль на архив: grandorchestra

Треклист:
01. Formation 1 [00:04:12]
02.
Formation 2 [00:04:26]
03.
Formation 3 [00:04:18]
04.
Formation 4 [00:06:49]
05.
Formation 1, Revisited - Dntel Remix [00:04:01]
06.
Formation 2, Revisited - Lusine Remix [00:05:00]
07.
Formation 3, Revisited - Matmos Remix [00:04:26]
08.
Formation 4, Revisited - Rafiq Bhatia Remix [00:04:31]
09.
Formations, Revisited - Luke Abbott Remix [00:05:17]
10.
What If the Luminous [00:09:45]

foobar2000 1.3.9 / Замер динамического диапазона (DR) 1.1.1
Дата отчёта: 2018-10-19 14:22:17

--------------------------------------------------------------------------------
Анализ: Field Works & Dntel / Glen Rose Formation (1)
Field Works & Luke Abbott / Glen Rose Formation (2)
Field Works & Lusine / Glen Rose Formation (3)
Field Works & Matmos / Glen Rose Formation (4)
Field Works & Rafiq Bhatia / Glen Rose Formation (5)
Field Works & Stuart Hyatt / Glen Rose Formation (6-10)
--------------------------------------------------------------------------------

DR Пики RMS Продолжительность трека
--------------------------------------------------------------------------------
DR10 -0.29 дБ -11.85 дБ 4:01 05-Formation 1, Revisited - Dntel Remix
DR8 -0.29 дБ -11.44 дБ 5:17 09-Formations, Revisited - Luke Abbott Remix
DR7 -0.45 дБ -10.16 дБ 5:01 06-Formation 2, Revisited - Lusine Remix
DR11 -0.44 дБ -14.17 дБ 4:27 07-Formation 3, Revisited - Matmos Remix
DR10 -0.43 дБ -12.93 дБ 4:31 08-Formation 4, Revisited - Rafiq Bhatia Remix
DR8 -0.51 дБ -10.49 дБ 4:12 01-Formation 1
DR9 -0.48 дБ -10.89 дБ 4:27 02-Formation 2
DR6 -0.44 дБ -7.09 дБ 4:18 03-Formation 3
DR6 -0.34 дБ -7.12 дБ 6:49 04-Formation 4
DR6 -0.19 дБ -7.10 дБ 9:45 10-What If the Luminous
--------------------------------------------------------------------------------

Количество треков: 10
Реальные значения DR: DR8

Частота: 44100 Гц
Каналов: 2
Разрядность: 16
Битрейт: 850 кбит/с
Кодек: FLAC
================================================================================
-----------------------

DON'T MODIFY THIS FILE

-----------------------

PERFORMER: auCDtect Task Manager, ver. 1.6.0 RC1 build 1.6.0.1
Copyright (c) 2008-2010 y-soft. All rights reserved
http://y-soft.org

ANALYZER: auCDtect: CD records authenticity detector, version 0.8.2
Copyright (c) 2004 Oleg Berngardt. All rights reserved.
Copyright (c) 2004 Alexander Djourik. All rights reserved.


FILE: 10. What If the Luminous.flac
Size: 62247382 Hash: 9C1C7FC906291DE4CAEEEFF13DC0FAB5 Accuracy: -m0
Conclusion: CDDA 100%
Signature: 1CB4BD20EFBA8C5EA1E72DD8FE58046E5F04CF87
FILE: 09. Formations, Revisited - Luke Abbott Remix.flac
Size: 31989261 Hash: 0B120FF0900E74E0144B94AC3D9AD1FC Accuracy: -m0
Conclusion: CDDA 100%
Signature: 0D6F30F8D05295743552DAB6B2D9FD4C50287801
FILE: 08. Formation 4, Revisited - Rafiq Bhatia Remix.flac
Size: 24049162 Hash: 2709D8D9D2DA33ECF3D249D138E78AB1 Accuracy: -m0
Conclusion: CDDA 100%
Signature: B6C5F385B0E42DC06E1799966C32ADA66561BDCC
FILE: 07. Formation 3, Revisited - Matmos Remix.flac
Size: 20601656 Hash: 0EBFEC47D1CDE5249E7A8737FB8DB4EF Accuracy: -m0
Conclusion: CDDA 99%
Signature: E2F9168C4A7667F0672ECD556E5E73687B6547D3
FILE: 06. Formation 2, Revisited - Lusine Remix.flac
Size: 29530457 Hash: 19CD687D84F24B4FAEC35AA03E573B20 Accuracy: -m0
Conclusion: CDDA 100%
Signature: 8AB541BB0B119AE43F2E0E1F4C1009261BC37D45
FILE: 05. Formation 1, Revisited - Dntel Remix.flac
Size: 23618472 Hash: 8C3E755FE6FF60432F62FA65A01DAA95 Accuracy: -m0
Conclusion: CDDA 100%
Signature: ABD9020B7327E49F38DF3D9940D74344055CF3C7
FILE: 04. Formation 4.flac
Size: 35007010 Hash: CBA4558618DAC907AF9A39832308C3EF Accuracy: -m0
Conclusion: CDDA 100%
Signature: 102A2085A52F90C4DAF35207BC8F4F13285B9BCE
FILE: 03. Formation 3.flac
Size: 21864130 Hash: A49303ACD9409355A9B10405F83F6B19 Accuracy: -m0
Conclusion: CDDA 99%
Signature: BA374D3F3D91B11A5759B029753A32C25BFF6BF1
FILE: 02. Formation 2.flac
Size: 22640327 Hash: 22C342B54EBC7BF1FA69748E9BAD3FC5 Accuracy: -m0
Conclusion: CDDA 99%
Signature: B94BC2EFB8A1A26FEE9498650CDF1BB0ED16FFF1
FILE: 01. Formation 1.flac
Size: 20713181 Hash: 81E1FE6D7F989DC65D116929AC2FC369 Accuracy: -m0
Conclusion: CDDA 100%
Signature: 22568243E13622103C3020CDD8DFD5162326CE37
Вверх