• Для скачивания альбомов c Облако Mail.Ru и Яндекс.Диск на нашем сайте необходимо зарегистрироваться.
  • Заказать необходимый альбом Вы можете в нашем специальном разделе "Стол заказов ".
Elle King - Shake The Spirit (2018) [WEB / FLAC / lossless]

Elle King - Shake The Spirit (2018) [WEB / FLAC / lossless]

нет прав для скачивания с cloud.mail.ru

Исполнитель: Elle King
Альбом: Shake The Spirit
Носитель: WEB альбом
Дата выпуска: 2018
Жанр: Alternative
Формат: FLAC (tracks)
Битрейт: 826-1039 kbps
Продолжительность: 00:50:36
Скачать: filehost | turbobit | dfiles
Пароль на архив: grandorchestra

Треклист:
01. Talk Of The Town [00:03:36]
02.
Baby Outlaw [00:03:19]
03.
Shame [00:02:39]
04.
Man's Man [00:02:48]
05.
Naturally Pretty Girls [00:03:13]
06.
Told You So [00:02:39]
07.
Good Thing Gone [00:04:52]
08.
Runaway [00:04:26]
09.
It Girl [00:03:42]
10.
Ram Jam [00:04:06]
11.
Sober [00:04:25]
12.
Chained (feat. Cameron Neal) [00:04:10]
13.
Little Bit Of Lovin' [00:06:33]

foobar2000 1.3.9 / Замер динамического диапазона (DR) 1.1.1
Дата отчёта: 2018-10-21 19:27:14

--------------------------------------------------------------------------------
Анализ: Elle King / Shake The Spirit
--------------------------------------------------------------------------------

DR Пики RMS Продолжительность трека
--------------------------------------------------------------------------------
DR5 -0.14 дБ -6.27 дБ 3:37 01-Talk Of The Town
DR3 -1.33 дБ -5.51 дБ 3:20 02-Baby Outlaw
DR4 -0.52 дБ -5.58 дБ 2:39 03-Shame
DR5 -0.10 дБ -6.44 дБ 2:49 04-Man's Man
DR5 -0.18 дБ -5.89 дБ 3:14 05-Naturally Pretty Girls
DR6 -0.12 дБ -7.31 дБ 2:40 06-Told You So
DR5 -0.10 дБ -7.96 дБ 4:53 07-Good Thing Gone
DR5 -0.20 дБ -6.32 дБ 4:26 08-Runaway
DR6 -0.10 дБ -7.32 дБ 3:43 09-It Girl
DR4 -0.10 дБ -5.62 дБ 4:06 10-Ram Jam
DR5 -0.17 дБ -7.74 дБ 4:25 11-Sober
DR7 -0.20 дБ -9.40 дБ 4:11 12-Chained (feat. Cameron Neal)
DR6 -0.10 дБ -8.38 дБ 6:34 13-Little Bit Of Lovin'
--------------------------------------------------------------------------------

Количество треков: 13
Реальные значения DR: DR5

Частота: 44100 Гц
Каналов: 2
Разрядность: 16
Битрейт: 977 кбит/с
Кодек: FLAC
================================================================================
-----------------------

DON'T MODIFY THIS FILE

-----------------------

PERFORMER: auCDtect Task Manager, ver. 1.6.0 RC1 build 1.6.0.1
Copyright (c) 2008-2010 y-soft. All rights reserved
http://y-soft.org

ANALYZER: auCDtect: CD records authenticity detector, version 0.8.2
Copyright (c) 2004 Oleg Berngardt. All rights reserved.
Copyright (c) 2004 Alexander Djourik. All rights reserved.


FILE: 13. Little Bit Of Lovin'.flac
Size: 48606583 Hash: A96ED35289BB774BA63782C4707843F2 Accuracy: -m0
Conclusion: CDDA 100%
Signature: 8FC3E1909F3E7B7015BB4C9B3510A5BFB363C390
FILE: 12. Chained (feat. Cameron Neal).flac
Size: 26835619 Hash: A49313875CB413127200DE84F885965F Accuracy: -m0
Conclusion: CDDA 100%
Signature: 787908D3A1E4734218C0A508B5161096340090A1
FILE: 11. Sober.flac
Size: 27877035 Hash: 2A50F00C54C06FD496190AD48A2CA3D6 Accuracy: -m0
Conclusion: CDDA 100%
Signature: 8580A6E5048B87356F6238C7D2F7FE7909C46ADB
FILE: 10. Ram Jam.flac
Size: 32044323 Hash: 58FC5E8718D778842127FB0E9F3D9ABA Accuracy: -m0
Conclusion: CDDA 100%
Signature: D27A175F57C5829226651DE7E38387E64292C1D9
FILE: 09. It Girl.flac
Size: 26262205 Hash: C162CD28236CB116ACB10D79C4AFDF23 Accuracy: -m0
Conclusion: CDDA 100%
Signature: B796F85D285A6CAAF43A1D08E6590AC4EC83734D
FILE: 08. Runaway.flac
Size: 29054110 Hash: ED7391796230999B118C4BD3279C3266 Accuracy: -m0
Conclusion: CDDA 100%
Signature: E2FDC6EF0DA0D2FAC1C6A1308ECA7A3B1A8BEBDE
FILE: 07. Good Thing Gone.flac
Size: 33614454 Hash: 28B381E9460BBB583863FA777CB0110B Accuracy: -m0
Conclusion: CDDA 99%
Signature: 30A151D1AAF69783DBF8FC8D9C39D56B7B519DBF
FILE: 06. Told You So.flac
Size: 19878319 Hash: 8E7E01FD862F6F88650D414120BB168F Accuracy: -m0
Conclusion: CDDA 100%
Signature: C4A70A47A8458118556C9E0EB6A8814B96FBC1A0
FILE: 05. Naturally Pretty Girls.flac
Size: 24315472 Hash: 1FB1DEB137ED5A34DFDB9D2DAB3CCEE3 Accuracy: -m0
Conclusion: CDDA 100%
Signature: 111BA8CEC64323AD025C3C8A24594C2C764DA2AB
FILE: 04. Man's Man.flac
Size: 22022654 Hash: AFE9B876E9DED4A2D2333EDB91F45FEF Accuracy: -m0
Conclusion: CDDA 99%
Signature: A68217F2DDB3336AB020C19796B57F6BA43D0013
FILE: 03. Shame.flac
Size: 21164438 Hash: 59EE0ED6D250A04B68296F9325405C21 Accuracy: -m0
Conclusion: CDDA 99%
Signature: B61C18DCA8BAFA8E1930B538D62B42B5916A2BB7
FILE: 02. Baby Outlaw.flac
Size: 23705233 Hash: E3954608C09BE753E877875E1AF873FF Accuracy: -m0
Conclusion: CDDA 100%
Signature: 588DBBC431E8F6067DB3AC990D3C3AE023E55589
FILE: 01. Talk Of The Town.flac
Size: 28044539 Hash: 8078E1ACF984D27B5272DE4A100E8F23 Accuracy: -m0
Conclusion: CDDA 100%
Signature: 4D19784F7F6E78F7F039FB6F5EC9CF00C766CE3A
Вверх