• Для скачивания альбомов c Облако Mail.Ru и Яндекс.Диск на нашем сайте необходимо зарегистрироваться.
  • Заказать необходимый альбом Вы можете в нашем специальном разделе "Стол заказов ".
Ella Mai - Ella Mai (2018) [WEB / FLAC / lossless]

Ella Mai - Ella Mai (2018) [WEB / FLAC / lossless]

нет прав для скачивания с cloud.mail.ru

Исполнитель: Ella Mai
Альбом: Ella Mai
Носитель: WEB альбом
Дата выпуска: 2018
Жанр: R&B/Soul
Формат: FLAC (tracks)
Битрейт: 697-1027 kbps
Продолжительность: 00:55:28
Скачать: filehost | turbobit | dfiles
Пароль на архив: grandorchestra

Треклист:
01. Emotion [00:00:11]
02.
Good Bad [00:03:49]
03.
Dangerous [00:04:39]
04.
Sauce [00:03:04]
05.
Whatchamacallit [00:02:59]
06.
Cheap Shot [00:04:01]
07.
Shot Clock [00:03:21]
08.
Boo'd Up [00:03:59]
09.
Everything [00:03:01]
10.
Own It [00:04:11]
11.
Run My Mouth [00:02:35]
12.
Gut Feeling [00:03:56]
13.
Trip [00:03:33]
14.
Close [00:04:11]
15.
Easy [00:04:32]
16.
Naked (Bonus Track) [00:03:17]

foobar2000 1.3.9 / Замер динамического диапазона (DR) 1.1.1
Дата отчёта: 2018-10-25 22:38:44

--------------------------------------------------------------------------------
Анализ: Ella Mai / Ella Mai
--------------------------------------------------------------------------------

DR Пики RMS Продолжительность трека
--------------------------------------------------------------------------------
DR15 -0.09 дБ -16.83 дБ 0:12 01-Emotion
DR5 -0.09 дБ -7.38 дБ 3:49 02-Good Bad
DR4 -0.09 дБ -5.53 дБ 4:40 03-Dangerous
DR5 -0.07 дБ -7.17 дБ 3:05 04-Sauce
DR5 -0.07 дБ -6.77 дБ 2:59 05-Whatchamacallit
DR4 -0.09 дБ -7.44 дБ 4:01 06-Cheap Shot
DR6 0.00 дБ -7.65 дБ 3:22 07-Shot Clock
DR5 -0.03 дБ -6.58 дБ 3:59 08-Boo'd Up
DR4 0.00 дБ -5.62 дБ 3:02 09-Everything
DR5 -0.09 дБ -6.57 дБ 4:11 10-Own It
DR6 -0.09 дБ -7.57 дБ 2:35 11-Run My Mouth
DR6 0.00 дБ -8.32 дБ 3:56 12-Gut Feeling
DR5 -0.09 дБ -7.78 дБ 3:34 13-Trip
DR6 0.00 дБ -6.70 дБ 4:12 14-Close
DR6 -0.09 дБ -8.43 дБ 4:33 15-Easy
DR8 -0.09 дБ -9.91 дБ 3:17 16-Naked (Bonus Track)
--------------------------------------------------------------------------------

Количество треков: 16
Реальные значения DR: DR6

Частота: 44100 Гц
Каналов: 2
Разрядность: 16
Битрейт: 810 кбит/с
Кодек: FLAC
================================================================================
-----------------------

DON'T MODIFY THIS FILE

-----------------------

PERFORMER: auCDtect Task Manager, ver. 1.6.0 RC1 build 1.6.0.1
Copyright (c) 2008-2010 y-soft. All rights reserved
http://y-soft.org

ANALYZER: auCDtect: CD records authenticity detector, version 0.8.2
Copyright (c) 2004 Oleg Berngardt. All rights reserved.
Copyright (c) 2004 Alexander Djourik. All rights reserved.


FILE: 16. Naked (Bonus Track).flac
Size: 19980244 Hash: 889364783D5AACF3C41D07D10333AA9C Accuracy: -m0
Conclusion: CDDA 100%
Signature: EA7CFBCA3627A430D9A1118602801AFA0E9BF042
FILE: 15. Easy.flac
Size: 28602817 Hash: 212AEB11EBF2590B42B16B948EE16FC1 Accuracy: -m0
Conclusion: CDDA 100%
Signature: B2973A131775F43602C1D747E636A919870973DD
FILE: 14. Close.flac
Size: 27276873 Hash: 1CFAE87157AD018C6BAAD307C359E545 Accuracy: -m0
Conclusion: CDDA 99%
Signature: 48AF13B8D6E4449B84ACE61583F98E6CCDEE60EF
FILE: 13. Trip.flac
Size: 25047890 Hash: 97C2BA78DC4A184C5AB919B1663B2018 Accuracy: -m0
Conclusion: CDDA 100%
Signature: 685EA99BAE3F3156271A176C8D27BCE7794197EB
FILE: 12. Gut Feeling.flac
Size: 26572792 Hash: 891CA8F01848CF5310CEF6D5C3A9525E Accuracy: -m0
Conclusion: CDDA 100%
Signature: 0C535A8397FF45C8552B595CECE08ED027BF0478
FILE: 11. Run My Mouth.flac
Size: 16966979 Hash: BB38504E3C07E39C603A8E4158E5D5E5 Accuracy: -m0
Conclusion: CDDA 100%
Signature: 95BFD2BEF7C025B0FC4E885D7A8DD770025B1F6D
FILE: 10. Own It.flac
Size: 29553043 Hash: F0C0D5E5CC95B7B720200B7D67112004 Accuracy: -m0
Conclusion: CDDA 100%
Signature: 498358F69411DC38E6514212EFECBB45BA1163B3
FILE: 09. Everything.flac
Size: 20521333 Hash: 043DE3D1397E4AB405A622059A4245F1 Accuracy: -m0
Conclusion: CDDA 100%
Signature: 31F6D165F795234D3921ABBA82DB3D8A8820E98B
FILE: 08. Boo'd Up.flac
Size: 30741378 Hash: 309D06322553791F83D39D7F5BC22DE7 Accuracy: -m0
Conclusion: MPEG 95%
Signature: 7EDB559EC1E2F2397D0016BBEC53C18A15FA2631
FILE: 07. Shot Clock.flac
Size: 22385127 Hash: 0363FC17758E4F8D8F358A8130C9D25F Accuracy: -m0
Conclusion: CDDA 100%
Signature: 1F26FEA05B6CD9DC51305C0B946B52C7C7A0C025
FILE: 06. Cheap Shot.flac
Size: 29585696 Hash: B459414B7957E32C828345E1CD5DC183 Accuracy: -m0
Conclusion: CDDA 100%
Signature: 84BB0D385506A2642F465CB0D7EE515D01407331
FILE: 05. Whatchamacallit.flac
Size: 22055584 Hash: 9D4EE62677BC3E6E322A91716AE6B702 Accuracy: -m0
Conclusion: CDDA 100%
Signature: FB3AD5AD2093C45E902BC904BF1C74EF71DF3DDA
FILE: 04. Sauce.flac
Size: 21091855 Hash: 9B3FAB721816AEC5AF97F054F03FCDA8 Accuracy: -m0
Conclusion: CDDA 100%
Signature: EC51F57F49A6DC9291EB48795BAA1ABC7AE3F15F
FILE: 03. Dangerous.flac
Size: 35743510 Hash: CD1F64DCC03BCF6AD1FE6886E03790F3 Accuracy: -m0
Conclusion: CDDA 100%
Signature: 54F6259AAB5E0334CDE8B05828D5DC6740362F76
FILE: 02. Good Bad.flac
Size: 27689430 Hash: 71E5C5B2BAA4FCBCA59A5630145E02E8 Accuracy: -m0
Conclusion: CDDA 100%
Signature: 0AFEF469CF4132E00C98FB0A776B930975BA22C9
FILE: 01. Emotion.flac
Size: 1046020 Hash: E8E9E953F594C4567970E1E49A656FD2 Accuracy: -m0
Conclusion: CDDA 100%
Signature: CF1DE0835C7AD127068F035A545B12E63DB19E0F
Вверх