• Для скачивания альбомов c Облако Mail.Ru и Яндекс.Диск на нашем сайте необходимо зарегистрироваться.
  • Заказать необходимый альбом Вы можете в нашем специальном разделе "Стол заказов ".
Cher - Dancing Queen (2018) [WEB / FLAC / 24bit lossless]

Cher - Dancing Queen (2018) [WEB / FLAC / 24bit lossless]

нет прав для скачивания с cloud.mail.ru

Исполнитель: Cher
Альбом: Dancing Queen
Носитель: WEB альбом
Дата выпуска: 2018
Жанр: Pop
Формат: FLAC (tracks)
Битрейт: 942-1764 kbps
Продолжительность: 00:40:09
Пароль на архив: grandorchestra

Треклист:
01. Dancing Queen [00:03:42]*
02. Gimme! Gimme! Gimme! (A Man After Midnight) [00:04:11]*
03. The Name of the Game [00:04:48]*
04. SOS [00:03:22]
05.
Waterloo [00:02:52]
06.
Mamma Mia [00:03:34]
07.
Chiquitita [00:05:14]
08.
Fernando [00:03:57]*
09. The Winner Takes It All [00:04:32]
10.
One of Us [00:03:53]*

* 1-3,8,10 - 24 bit

foobar2000 1.3.9 / Замер динамического диапазона (DR) 1.1.1
Дата отчёта: 2018-10-03 00:15:45

--------------------------------------------------------------------------------
Анализ: Cher / Dancing Queen
--------------------------------------------------------------------------------

DR Пики RMS Продолжительность трека
--------------------------------------------------------------------------------
DR6 0.00 дБ -7.97 дБ 3:43 01-Dancing Queen
DR6 0.00 дБ -7.87 дБ 4:11 02-Gimme! Gimme! Gimme! (A Man After Midnight)
DR6 0.00 дБ -8.19 дБ 4:49 03-The Name of the Game
--------------------------------------------------------------------------------

Количество треков: 3
Реальные значения DR: DR6

Частота: 44100 Гц
Каналов: 2
Разрядность: 24
Битрейт: 1696 кбит/с
Кодек: FLAC
================================================================================

--------------------------------------------------------------------------------
Анализ: Cher / Dancing Queen
--------------------------------------------------------------------------------

DR Пики RMS Продолжительность трека
--------------------------------------------------------------------------------
DR5 0.00 дБ -8.25 дБ 3:22 04-SOS
DR6 0.00 дБ -6.60 дБ 2:53 05-Waterloo
DR6 0.00 дБ -7.55 дБ 3:34 06-Mamma Mia
DR7 0.00 дБ -9.57 дБ 5:14 07-Chiquitita
--------------------------------------------------------------------------------

Количество треков: 4
Реальные значения DR: DR6

Частота: 44100 Гц
Каналов: 2
Разрядность: 16
Битрейт: 951 кбит/с
Кодек: FLAC
================================================================================

--------------------------------------------------------------------------------
Статистика для: 08-Fernando
Количество сэмплов: 10456404
Продолжительность: 3:57
--------------------------------------------------------------------------------

Левый Правый

Пики: 0.00 дБ --- 0.00 дБ
Средний RMS: -9.07 дБ --- -8.63 дБ
DR канала: 6.63 дБ --- 6.32 дБ
--------------------------------------------------------------------------------

Реальные значения DR: DR6

Частота: 44100 Гц
Каналов: 2
Разрядность: 24
Битрейт: 1673 кбит/с
Кодек: FLAC
================================================================================
--------------------------------------------------------------------------------
Статистика для: 09-The Winner Takes It All
Количество сэмплов: 12014016
Продолжительность: 4:32
--------------------------------------------------------------------------------

Левый Правый

Пики: 0.00 дБ --- 0.00 дБ
Средний RMS: -8.91 дБ --- -8.79 дБ
DR канала: 6.13 дБ --- 5.99 дБ
--------------------------------------------------------------------------------

Реальные значения DR: DR6

Частота: 44100 Гц
Каналов: 2
Разрядность: 16
Битрейт: 962 кбит/с
Кодек: FLAC
================================================================================
--------------------------------------------------------------------------------
Статистика для: 10-One of Us
Количество сэмплов: 10299996
Продолжительность: 3:54
--------------------------------------------------------------------------------

Левый Правый

Пики: 0.00 дБ --- 0.00 дБ
Средний RMS: -12.16 дБ --- -12.42 дБ
DR канала: 8.60 дБ --- 8.99 дБ
--------------------------------------------------------------------------------

Реальные значения DR: DR9

Частота: 44100 Гц
Каналов: 2
Разрядность: 24
Битрейт: 1545 кбит/с
Кодек: FLAC
================================================================================
-----------------------

DON'T MODIFY THIS FILE

-----------------------

PERFORMER: auCDtect Task Manager, ver. 1.6.0 RC1 build 1.6.0.1
Copyright (c) 2008-2010 y-soft. All rights reserved
http://y-soft.org

ANALYZER: auCDtect: CD records authenticity detector, version 0.8.2
Copyright (c) 2004 Oleg Berngardt. All rights reserved.
Copyright (c) 2004 Alexander Djourik. All rights reserved.


FILE: 09. The Winner Takes It All.flac
Size: 33201145 Hash: 6C90F167B2135E52C8C436C8146865EC Accuracy: -m0
Conclusion: CDDA 100%
Signature: 10AAF7B659DB2316E317033368869DA9EB47CD3D
FILE: 07. Chiquitita.flac
Size: 37794903 Hash: F91AF93C204C9CEEEF783AC128F3F0E8 Accuracy: -m0
Conclusion: CDDA 100%
Signature: DB757094AB5EF45CB75828F7E203935CD8120D10
FILE: 06. Mamma Mia.flac
Size: 28897778 Hash: 0A34FD55488E36DF548D712886B006F8 Accuracy: -m0
Conclusion: CDDA 100%
Signature: 79F80C78DDF901502F517336C090E62D70550D81
FILE: 05. Waterloo.flac
Size: 23638746 Hash: 7D7A05F35B9067D4FC0608C783B4822C Accuracy: -m0
Conclusion: CDDA 99%
Signature: A4F932934E5534910D3DA76CED15C4BEC55486CE
FILE: 04. SOS.flac
Size: 24299603 Hash: 70B8C8FF9F33245BE57D77B3513DCAA7 Accuracy: -m0
Conclusion: CDDA 100%
Signature: 86B89694954E24AC400EB680BE0A5C865C0DB9EC

Последние отзывы

АВВА конечно круче, но Шер тоже неплохо. Осовременила так сказать. Как по мне так в оригинале лучше.
Вверх