• Для скачивания альбомов c Облако Mail.Ru и Яндекс.Диск на нашем сайте необходимо зарегистрироваться.
  • Заказать необходимый альбом Вы можете в нашем специальном разделе "Стол заказов ".
Cabeiri - Temple Within (2018) [WEB / FLAC / lossless]

Cabeiri - Temple Within (2018) [WEB / FLAC / lossless]

нет прав для скачивания с cloud.mail.ru
  • Автор rdf
  • Дата создания
  • Рекомендуемый

Исполнитель: Cabeiri
Альбом: Temple Within
Носитель: WEB альбом
Дата выпуска: 2018
Жанр: PsyChill
Формат: FLAC (tracks)
Битрейт: 836-1022 kbps
Продолжительность: 01:18:39
Пароль на архив: grandorchestra

Треклист:
01. From Nothing Became [00:09:23]
02.
Aum [00:08:55]
03.
Shivlock [00:08:52]
04.
The Seven Spheres [00:06:54]
05.
Temple Within [00:09:31]
06.
Nature's Realm [00:09:27]
07.
Reincarnation [00:08:00]
08.
Bindu Awakening [00:09:12]
09.
Compassion [00:08:22]

foobar2000 1.3.9 / Замер динамического диапазона (DR) 1.1.1
Дата отчёта: 2018-10-16 15:38:32

--------------------------------------------------------------------------------
Анализ: Cabeiri / Temple Within
--------------------------------------------------------------------------------

DR Пики RMS Продолжительность трека
--------------------------------------------------------------------------------
DR6 -0.31 дБ -9.50 дБ 9:23 01-From Nothing Became
DR6 -0.31 дБ -8.09 дБ 8:55 02-Aum
DR6 -0.21 дБ -8.77 дБ 8:52 03-Shivlock
DR5 -0.31 дБ -7.19 дБ 6:54 04-The Seven Spheres
DR5 -0.31 дБ -6.86 дБ 9:31 05-Temple Within
DR5 -0.31 дБ -6.76 дБ 9:28 06-Nature's Realm
DR5 -0.31 дБ -8.14 дБ 8:01 07-Reincarnation
DR5 -0.31 дБ -7.61 дБ 9:13 08-Bindu Awakening
DR5 -0.31 дБ -7.57 дБ 8:22 09-Compassion
--------------------------------------------------------------------------------

Количество треков: 9
Реальные значения DR: DR5

Частота: 44100 Гц
Каналов: 2
Разрядность: 16
Битрейт: 897 кбит/с
Кодек: FLAC
================================================================================
-----------------------

DON'T MODIFY THIS FILE

-----------------------

PERFORMER: auCDtect Task Manager, ver. 1.6.0 RC1 build 1.6.0.1
Copyright (c) 2008-2010 y-soft. All rights reserved
http://y-soft.org

ANALYZER: auCDtect: CD records authenticity detector, version 0.8.2
Copyright (c) 2004 Oleg Berngardt. All rights reserved.
Copyright (c) 2004 Alexander Djourik. All rights reserved.


FILE: 09. Compassion.flac
Size: 56586595 Hash: D694964E1139933A5FEF49B1E4872B8B Accuracy: -m0
Conclusion: MPEG 95%
Signature: B88075BE424A31F15353E6D222B1344BB9BA9D2C
FILE: 08. Bindu Awakening.flac
Size: 60676125 Hash: E2E9668EA30454461EE8037AF6C97C1B Accuracy: -m0
Conclusion: CDDA 100%
Signature: D05F4B8E5785E3F3B76AA12C3AB7C3608BEA2205
FILE: 07. Reincarnation.flac
Size: 53838657 Hash: CF81CC2937621AADADFC5AF0384F7011 Accuracy: -m0
Conclusion: MPEG 95%
Signature: E06EC46F64EE2CCE3C9237398FF7E4DC5F850B73
FILE: 06. Nature's Realm.flac
Size: 66800642 Hash: 181FB49987D15F2536D5E677368744AD Accuracy: -m0
Conclusion: CDDA 100%
Signature: 1C05B80F58807AA2B41682348F53B178B7D380C9
FILE: 05. Temple Within.flac
Size: 65555423 Hash: AB61F3C983494DC4E81451C6542D0493 Accuracy: -m0
Conclusion: CDDA 100%
Signature: 369CD0D1DF247DD51D93A68526E15532A61EAECA
FILE: 04. The Seven Spheres.flac
Size: 53223660 Hash: C1B84E1E5394BE237F6DF4DBC0E20ACC Accuracy: -m0
Conclusion: CDDA 100%
Signature: 450458A5E9C07215DFF6ACCA2F817AD3B63B8174
FILE: 03. Shivlock.flac
Size: 62288047 Hash: A1D5CBD4AFE62DDA1D12BC56D323A302 Accuracy: -m0
Conclusion: MPEG 95%
Signature: E9A7E0E89E795912CCC389758672A597B550B1C3
FILE: 02. Aum.flac
Size: 56273552 Hash: 9B386CBCEBC74F36A994084DA851BEAC Accuracy: -m0
Conclusion: MPEG 95%
Signature: 14BC55212AEC1F0A5ABED36FE7E336D70F4A72AC
FILE: 01. From Nothing Became.flac
Size: 60506656 Hash: 9125E582004BDF21DE914C9A3BFEA34B Accuracy: -m0
Conclusion: CDDA 100%
Signature: 474FBA4A5EE3C86430A6BD5B75B902872928A84D
Вверх