• Для скачивания альбомов c Облако Mail.Ru и Яндекс.Диск на нашем сайте необходимо зарегистрироваться.
  • Заказать необходимый альбом Вы можете в нашем специальном разделе "Стол заказов ".
Bob Dylan - More Blood, More Tracks: The Bootleg Series, Vol. 14 (Sampler) (2018) [WEB / FLAC]

Bob Dylan - More Blood, More Tracks: The Bootleg Series, Vol. 14 (Sampler) (2018) [WEB / FLAC]

нет прав для скачивания с cloud.mail.ru

Исполнитель: Bob Dylan
Альбом: More Blood, More Tracks: The Bootleg Series, Vol. 14 (Sampler)
Носитель: WEB альбом
Дата выпуска: 2018
Жанр: Rock
Формат: FLAC (tracks)
Битрейт: 595-771 kbps
Продолжительность: 01:00:16
Скачать: DepositFiles | TurboBit
Пароль на архив: grandorchestra

Треклист:
01. Tangled Up in Blue (Take 3, Remake 3) [00:06:31]
02.
If You See Her, Say Hello (Take 1) [00:03:57]
03.
Up to Me (Take 1) [00:06:04]
04.
You're Gonna Make Me Lonesome When You Go (Take 5) [00:05:16]
05.
Lily, Rosemary and the Jack of Hearts (Take 2) [00:09:50]
06.
You're a Big Girl Now (Take 2) [00:04:41]
07.
Shelter from the Storm (Take 1) [00:06:01]
08.
Call Letter Blues (Take 1) [00:04:42]
09.
Simple Twist of Fate (Take 3A) [00:04:22]
10.
Idiot Wind (Take 6) [00:08:49]

foobar2000 1.3.9 / Замер динамического диапазона (DR) 1.1.1
Дата отчёта: 2018-11-03 09:59:48

--------------------------------------------------------------------------------
Анализ: Bob Dylan / More Blood, More Tracks: The Bootleg Series, Vol. 14 (Sampler)
--------------------------------------------------------------------------------

DR Пики RMS Продолжительность трека
--------------------------------------------------------------------------------
DR13 -1.60 дБ -17.09 дБ 6:32 01-Tangled Up in Blue (Take 3, Remake 3)
DR12 -1.55 дБ -15.48 дБ 3:57 02-If You See Her, Say Hello (Take 1)
DR13 -1.75 дБ -16.68 дБ 6:04 03-Up to Me (Take 1)
DR12 -0.32 дБ -15.29 дБ 5:16 04-You're Gonna Make Me Lonesome When You Go (Take 5)
DR13 -1.13 дБ -16.08 дБ 9:50 05-Lily, Rosemary and the Jack of Hearts (Take 2)
DR13 -0.47 дБ -17.26 дБ 4:41 06-You're a Big Girl Now (Take 2)
DR13 -2.30 дБ -17.05 дБ 6:02 07-Shelter from the Storm (Take 1)
DR14 -0.39 дБ -16.32 дБ 4:42 08-Call Letter Blues (Take 1)
DR12 -1.18 дБ -17.35 дБ 4:22 09-Simple Twist of Fate (Take 3A)
DR13 -0.70 дБ -16.71 дБ 8:50 10-Idiot Wind (Take 6)
--------------------------------------------------------------------------------

Количество треков: 10
Реальные значения DR: DR13

Частота: 44100 Гц
Каналов: 2
Разрядность: 16
Битрейт: 699 кбит/с
Кодек: FLAC
================================================================================
-----------------------

DON'T MODIFY THIS FILE

-----------------------

PERFORMER: auCDtect Task Manager, ver. 1.6.0 RC1 build 1.6.0.1
Copyright (c) 2008-2010 y-soft. All rights reserved
http://y-soft.org

ANALYZER: auCDtect: CD records authenticity detector, version 0.8.2
Copyright (c) 2004 Oleg Berngardt. All rights reserved.
Copyright (c) 2004 Alexander Djourik. All rights reserved.


FILE: 10. Idiot Wind (Take 6).flac
Size: 46293387 Hash: 77645864A1A80CC672EC26E92F85C83F Accuracy: -m0
Conclusion: CDDA 100%
Signature: 4B94E220BC5F1EF5642C9DD7D9D29A5BEF19C0B3
FILE: 09. Simple Twist Of Fate (Take 3A).flac
Size: 22640962 Hash: DD3ABF6513110949425B681743BDE5F3 Accuracy: -m0
Conclusion: CDDA 100%
Signature: 6F923490DB610C311CC8D6F4CD9F9DA3E92F8BA3
FILE: 08. Call Letter Blues (Take 1).flac
Size: 27245301 Hash: 9BD410711F29499DD3E396C4BEEF587B Accuracy: -m0
Conclusion: CDDA 100%
Signature: EA68C865F7717314DBDD7B6BC44A4AB08E6EDC3E
FILE: 07. Shelter From The Storm (Take 1).flac
Size: 34590073 Hash: 8DCF1B490ABA4B02E819BD74FBF5B8FC Accuracy: -m0
Conclusion: CDDA 99%
Signature: F2DA95275875C2D7F97151C8E18D915251E690C5
FILE: 06. You're A Big Girl Now (Take 2).flac
Size: 23211227 Hash: A30C1E6F93E24CD40AEFD76C81BEE803 Accuracy: -m0
Conclusion: CDDA 100%
Signature: AAEA2A2AE09A4E8B6331E92D4487F7C1FA416848
FILE: 05. Lily, Rosemary And The Jack Of Hearts (Take 2).flac
Size: 55740700 Hash: 40ED3B4A0C339128E365A986EFDF85E7 Accuracy: -m0
Conclusion: CDDA 100%
Signature: 099940DFD57507284FCD72F499E6F9822B675D35
FILE: 04. You're Gonna Make Me Lonesome When You Go (Take 5).flac
Size: 23543872 Hash: 1A42F1C87A56CBA477AEA66125C4C105 Accuracy: -m0
Conclusion: CDDA 100%
Signature: 97FBD2C561155EE5FEB5550769FADA1EE23FB5F5
FILE: 03. Up To Me (Take 1).flac
Size: 33088932 Hash: 12D7C23A8E32F45960688C886969CCF1 Accuracy: -m0
Conclusion: CDDA 100%
Signature: 88A25D34C3DC3030ACB578FA4599F120C8342CF1
FILE: 02. If You See Her, Say Hello (Take 1).flac
Size: 21004655 Hash: 49CB283B10EF8F76DC8F83E73B9F7DD3 Accuracy: -m0
Conclusion: CDDA 100%
Signature: 75F35E38BD11B3991DCCD1419633C5698D5E2F48
FILE: 01. Tangled Up In Blue (Take 3, Remake 3).flac
Size: 35378164 Hash: 733CEB22175DCBB67D93B20E91868478 Accuracy: -m0
Conclusion: CDDA 100%
Signature: FBE0A25B301B8AB2FCBF3D4CCB0DE47E2C045F4F
Вверх