• Для скачивания альбомов c Облако Mail.Ru и Яндекс.Диск на нашем сайте необходимо зарегистрироваться.
  • Заказать необходимый альбом Вы можете в нашем специальном разделе "Стол заказов ".
Barbra Streisand - Walls (2018) [WEB / FLAC / lossless]

Barbra Streisand - Walls (2018) [WEB / FLAC / lossless]

нет прав для скачивания с cloud.mail.ru
  • Автор rdf
  • Дата создания
  • Рекомендуемый

Исполнитель: Barbra Streisand
Альбом: Walls
Носитель: WEB альбом
Дата выпуска: 2018
Жанр: Pop
Формат: FLAC (tracks)
Битрейт: 703-886 kbps
Продолжительность: 00:47:59
Скачать: DepositFiles | TurboBit
Пароль на архив: grandorchestra

Треклист:
01. What's On My Mind [00:05:16]
02.
Don't Lie to Me [00:03:57]
03.
Imagine What a Wonderful World [00:05:20]
04.
Walls [00:03:54]
05.
Lady Liberty [00:03:52]
06.
What the World Needs Now [00:04:36]
07.
Better Angels [00:04:08]
08.
Love's Never Wrong [00:04:06]
09.
The Rain Will Fall [00:04:42]
10.
Take Care of This House [00:04:10]
11.
Happy Days Are Here Again [00:03:53]

foobar2000 1.3.9 / Замер динамического диапазона (DR) 1.1.1
Дата отчёта: 2018-11-03 10:19:00

--------------------------------------------------------------------------------
Анализ: Barbra Streisand / Walls
--------------------------------------------------------------------------------

DR Пики RMS Продолжительность трека
--------------------------------------------------------------------------------
DR7 0.00 дБ -9.40 дБ 5:16 01-What's On My Mind
DR6 0.00 дБ -8.68 дБ 3:58 02-Don't Lie to Me
DR7 0.00 дБ -10.79 дБ 5:20 03-Imagine What a Wonderful World
DR8 0.00 дБ -11.26 дБ 3:55 04-Walls
DR6 0.00 дБ -9.17 дБ 3:52 05-Lady Liberty
DR7 0.00 дБ -10.93 дБ 4:37 06-What the World Needs Now
DR6 0.00 дБ -10.75 дБ 4:08 07-Better Angels
DR8 0.00 дБ -11.71 дБ 4:06 08-Love's Never Wrong
DR6 0.00 дБ -8.44 дБ 4:43 09-The Rain Will Fall
DR7 0.00 дБ -12.85 дБ 4:10 10-Take Care of This House
DR7 0.00 дБ -11.67 дБ 3:54 11-Happy Days Are Here Again
--------------------------------------------------------------------------------

Количество треков: 11
Реальные значения DR: DR7

Частота: 44100 Гц
Каналов: 2
Разрядность: 16
Битрейт: 720 кбит/с
Кодек: FLAC
================================================================================
-----------------------

DON'T MODIFY THIS FILE

-----------------------

PERFORMER: auCDtect Task Manager, ver. 1.6.0 RC1 build 1.6.0.1
Copyright (c) 2008-2010 y-soft. All rights reserved
http://y-soft.org

ANALYZER: auCDtect: CD records authenticity detector, version 0.8.2
Copyright (c) 2004 Oleg Berngardt. All rights reserved.
Copyright (c) 2004 Alexander Djourik. All rights reserved.


FILE: 11. Happy Days Are Here Again.flac
Size: 21039282 Hash: D14D82189F8F72D8CA525D64DB2CF7FF Accuracy: -m0
Conclusion: CDDA 100%
Signature: 56FFE098B3B88BF7F904D0AD0FE6CC0A043D5FE0
FILE: 10. Take Care Of This House.flac
Size: 21982263 Hash: EB14569E914D7A3B38A666E37D6F5294 Accuracy: -m0
Conclusion: CDDA 100%
Signature: DA9EB9EC4F6B9A76296EADA68E0CAD86557F7E21
FILE: 09. The Rain Will Fall.flac
Size: 31167835 Hash: FC3FFC2679D20EBB9B964C108F4D778B Accuracy: -m0
Conclusion: CDDA 100%
Signature: A49757198084519C19CCBF7504352DB6D4A71A7B
FILE: 08. Love's Never Wrong.flac
Size: 22648351 Hash: B3FE4EEC216FF331A4FF70D254379409 Accuracy: -m0
Conclusion: CDDA 100%
Signature: A7084BA1F542B095446A0C5BB13DF54DE80BE129
FILE: 07. Better Angels.flac
Size: 23215717 Hash: 8A4B9FC8EBB95C6819C156B1DABBDC8F Accuracy: -m0
Conclusion: CDDA 100%
Signature: D802CB1EF1B99409775605EF27E0EF9C75121A81
FILE: 06. What The World Needs Now.flac
Size: 28091911 Hash: FD06A128C9B7E5766D49BEB4DE3DB9F0 Accuracy: -m0
Conclusion: CDDA 100%
Signature: 196047B79B683BE423D67C7D69FE62E55B39CB8D
FILE: 05. Lady Liberty.flac
Size: 23473045 Hash: 18237113C6876B0F521BFE4EB231FE5C Accuracy: -m0
Conclusion: CDDA 100%
Signature: 3FE0ECF412C36421699B84E26901A0F924DC10D5
FILE: 04. Walls.flac
Size: 21853657 Hash: ABD63E14C91844BECCF8EC2309D8CF00 Accuracy: -m0
Conclusion: CDDA 99%
Signature: 96F715801AC0E968A0DCD967C179491774C176FA
FILE: 03. Imagine What A Wonderful World.flac
Size: 29549838 Hash: 1E10486FF9953C92D32B0326B2942925 Accuracy: -m0
Conclusion: CDDA 100%
Signature: 7C4898ABA05077581C0BA5B99BBC38B65040993C
FILE: 02. Don't Lie To Me.flac
Size: 26367447 Hash: 325CC43C63CD45481AD1752D3C7E7D2D Accuracy: -m0
Conclusion: CDDA 100%
Signature: 650FB2F7CF4B5EC1D1F54E031C17C5E97CF3405B
FILE: 01. What's On My Mind.flac
Size: 32220488 Hash: 230B1AC42FE11877B825B3DAF6036127 Accuracy: -m0
Conclusion: CDDA 100%
Signature: F2FD8AD778882EE9DADBB59DD62904BC498B0D8D
Вверх