• Для скачивания альбомов c Облако Mail.Ru и Яндекс.Диск на нашем сайте необходимо зарегистрироваться.
  • Заказать необходимый альбом Вы можете в нашем специальном разделе "Стол заказов ".
Age Of Echoes - Into Eternity (2018) [WEB / FLAC / lossless]

Age Of Echoes - Into Eternity (2018) [WEB / FLAC / lossless]

нет прав для скачивания с cloud.mail.ru
  • Автор rdf
  • Дата создания
  • Рекомендуемый

Исполнитель: Age Of Echoes
Альбом: Into Eternity
Носитель: WEB альбом
Дата выпуска: 03.10.2018
Жанр: New Age
Формат: FLAC (tracks)
Битрейт: 817-903 kbps
Продолжительность: 00:52:34
Релиз: СЛИМ (Сообщество любителей инструментальной музыки)

Треклист:
01. Perfect Silence [00:06:44]
02.
Behind the Veil [00:06:15]
03.
Eternal Journey [00:08:11]
04.
Always and Forever [00:06:18]
05.
The Promised Land [00:07:20]
06.
The Things We Leave Behind [00:07:16]
07.
Into the Light [00:10:28]

An epic and uplifting soundscape, pausing on the threshold of this life and the next. At once a sentimental remembrance of a life left behind and an exciting, awe inspiring vision of what comes next on this eternal journey ! ....Step into Eternity....Step into the light !
foobar2000 1.3.9 / Замер динамического диапазона (DR) 1.1.1
Дата отчёта: 2018-10-05 13:48:13

--------------------------------------------------------------------------------
Анализ: Age Of Echoes / Into Eternity
--------------------------------------------------------------------------------

DR Пики RMS Продолжительность трека
--------------------------------------------------------------------------------
DR12 -1.54 дБ -15.20 дБ 6:44 01-Perfect Silence
DR13 -0.26 дБ -15.67 дБ 6:16 02-Behind the Veil
DR10 -1.54 дБ -14.28 дБ 8:11 03-Eternal Journey
DR12 -0.26 дБ -14.61 дБ 6:19 04-Always and Forever
DR11 -2.18 дБ -15.90 дБ 7:21 05-The Promised Land
DR8 -2.23 дБ -13.43 дБ 7:17 06-The Things We Leave Behind
DR11 -1.19 дБ -13.94 дБ 10:29 07-Into the Light
--------------------------------------------------------------------------------

Количество треков: 7
Реальные значения DR: DR11

Частота: 44100 Гц
Каналов: 2
Разрядность: 16
Битрейт: 865 кбит/с
Кодек: FLAC
================================================================================

-----------------------

DON'T MODIFY THIS FILE

-----------------------

PERFORMER: auCDtect Task Manager, ver. 1.6.0 RC1 build 1.6.0.1
Copyright (c) 2008-2010 y-soft. All rights reserved
http://y-soft.org

ANALYZER: auCDtect: CD records authenticity detector, version 0.8.2
Copyright (c) 2004 Oleg Berngardt. All rights reserved.
Copyright (c) 2004 Alexander Djourik. All rights reserved.

FILE: 07. Into the Light.flac
Size: 68125686 Hash: 586B4D9A555575AD797678D03A18CE9D Accuracy: -m0
Conclusion: CDDA 100%
Signature: C04EE2A2DAF5F2079D6AA5496C90D6B0487E7C18
FILE: 06. The Things We Leave Behind.flac
Size: 44777190 Hash: 382BC4716C714727316C4E66BE0C4857 Accuracy: -m0
Conclusion: CDDA 99%
Signature: 1C0075E68478A5A9F305D71FDAF6DF9D980CE632
FILE: 05. The Promised Land.flac
Size: 49057771 Hash: AFFA22D8D83DE9065A9E6440682FF1C6 Accuracy: -m0
Conclusion: CDDA 100%
Signature: A078456B2CC2CC7BE3E370CB2A220FDB6022964A
FILE: 04. Always and Forever.flac
Size: 42893205 Hash: B36CCB95C9188D21084B533299FDAED0 Accuracy: -m0
Conclusion: CDDA 100%
Signature: A6ADB3D20045FD52BB047630A821CFD9B04E0BAB
FILE: 03. Eternal Journey.flac
Size: 54006675 Hash: 5ECD456BE4B94194547710B1FE01973A Accuracy: -m0
Conclusion: CDDA 100%
Signature: E30EB29CC72515ABB4C2F517D6276C7DF6E13F50
FILE: 02. Behind the Veil.flac
Size: 39207088 Hash: E6D7711232176E4799CAE367E5228570 Accuracy: -m0
Conclusion: CDDA 100%
Signature: E388B4B4BE085616EBD2F5AD94D80E413F980A3D
FILE: 01. Perfect Silence.flac
Size: 43071384 Hash: 93E6835A167167B4F2599B47B80A806C Accuracy: -m0
Conclusion: CDDA 100%
Signature: E1BD133CBB23B38322D37579425720FA823C4B10
Вверх