• Для скачивания альбомов c Облако Mail.Ru и Яндекс.Диск на нашем сайте необходимо зарегистрироваться.
  • Заказать необходимый альбом Вы можете в нашем специальном разделе "Стол заказов ".
Various Artists - Insecure: Music from the HBO Original Series, Season 3 (2018) [WEB / FLAC]

Various Artists - Insecure: Music from the HBO Original Series, Season 3 (2018) [WEB / FLAC]

нет прав для скачивания с cloud.mail.ru

Исполнитель: Various Artists
Альбом: Insecure: Music from the HBO Original Series, Season 3
Носитель: WEB альбом
Дата выпуска: 2018
Жанр: Soundtrack
Формат: FLAC (tracks)
Битрейт: 743-950 kbps
Продолжительность: 01:00:40
Пароль на архив: grandorchestra

Треклист:
01. Banana Clip [00:03:20]
02.
Know Nothing [00:03:01]
03.
Cold War [00:03:24]
04.
Life's A Bitch [00:03:42]
05.
Coco Miyaki [00:02:35]
06.
You Can Tell [00:02:53]
07.
Easy [00:02:16]
08.
Sweet Honey [00:02:46]
09.
Trouble On Central [00:03:08]
10.
Make It Out Alive [00:03:58]
11.
Manifesto [00:02:11]
12.
Summer Love [00:01:15]
13.
Girl Blunt [00:03:26]
14.
Mulita [00:03:15]
15.
Little More Time [00:04:08]
16.
Wrong Speed [00:03:30]
17.
Just Me [00:02:57]
18.
Golden Pussy [00:02:58]
19.
The Glow [00:02:57]
20.
Ho For It [00:02:52]

foobar2000 1.3.9 / Замер динамического диапазона (DR) 1.1.1
Дата отчёта: 2018-09-26 23:27:47

--------------------------------------------------------------------------------
Анализ: Anna Wise, Xavier Omär / Insecure: Music from the HBO Original Series, Season 3 (1)
Black Party / Insecure: Music from the HBO Original Series, Season 3 (2)
Buddy / Insecure: Music from the HBO Original Series, Season 3 (3)
Cautious Clay / Insecure: Music from the HBO Original Series, Season 3 (4)
Childish Major, TT the Artist, Dreezy, Cam & China / Insecure: Music from the HBO Original Series, Season 3 (5)
Childish Major / Insecure: Music from the HBO Original Series, Season 3 (6)
Derrius Logan / Insecure: Music from the HBO Original Series, Season 3 (7)
Leikeli47 / Insecure: Music from the HBO Original Series, Season 3 (8-9)
LION BABE / Insecure: Music from the HBO Original Series, Season 3 (10)
Lucky Daye, Victoria Monet / Insecure: Music from the HBO Original Series, Season 3 (11)
Miguel / Insecure: Music from the HBO Original Series, Season 3 (12)
NAO, Sir / Insecure: Music from the HBO Original Series, Season 3 (13)
Opal, Sunny Moonshine / Insecure: Music from the HBO Original Series, Season 3 (14)
OverDoz. / Insecure: Music from the HBO Original Series, Season 3 (15)
Peyton / Insecure: Music from the HBO Original Series, Season 3 (16)
Radiant Children / Insecure: Music from the HBO Original Series, Season 3 (17)
Sasha Go Hard / Insecure: Music from the HBO Original Series, Season 3 (18)
Siaira Shawn / Insecure: Music from the HBO Original Series, Season 3 (19)
Victoria Monet / Insecure: Music from the HBO Original Series, Season 3 (20)
--------------------------------------------------------------------------------

DR Пики RMS Продолжительность трека
--------------------------------------------------------------------------------
DR7 0.00 дБ -8.62 дБ 2:17 07/20-Easy
DR6 0.00 дБ -7.88 дБ 1:15 12/20-Summer Love
DR7 -0.06 дБ -8.28 дБ 3:08 09/20-Trouble On Central
DR5 0.00 дБ -6.09 дБ 3:24 03/20-Cold War
DR5 0.00 дБ -6.54 дБ 2:53 20/20-Ho For It
DR4 -1.20 дБ -7.92 дБ 3:02 02/20-Know Nothing
DR5 0.00 дБ -8.33 дБ 2:54 06/20-You Can Tell
DR5 0.00 дБ -7.44 дБ 3:27 13/20-Girl Blunt
DR5 -0.03 дБ -6.02 дБ 3:15 14/20-Mulita
DR5 0.00 дБ -7.13 дБ 2:57 17/20-Just Me
DR6 0.00 дБ -7.69 дБ 4:08 15/20-Little More Time
DR5 0.00 дБ -6.25 дБ 3:21 01/20-Banana Clip
DR5 -0.09 дБ -7.13 дБ 3:58 10/20-Make It Out Alive
DR5 0.00 дБ -7.50 дБ 2:35 05/20-Coco Miyaki
DR6 0.00 дБ -8.37 дБ 2:11 11/20-Manifesto
DR6 0.00 дБ -6.75 дБ 2:47 08/20-Sweet Honey
DR4 0.00 дБ -7.37 дБ 3:42 04/20-Life's A Bitch
DR5 0.00 дБ -7.19 дБ 2:59 18/20-Golden Pussy
DR7 -0.18 дБ -9.72 дБ 3:31 16/20-Wrong Speed
DR5 0.00 дБ -7.00 дБ 2:58 19/20-The Glow
--------------------------------------------------------------------------------

Количество треков: 20
Реальные значения DR: DR5

Частота: 44100 Гц
Каналов: 2
Разрядность: 16
Битрейт: 946 кбит/с
Кодек: FLAC
================================================================================
-----------------------

DON'T MODIFY THIS FILE

-----------------------

PERFORMER: auCDtect Task Manager, ver. 1.6.0 RC1 build 1.6.0.1
Copyright (c) 2008-2010 y-soft. All rights reserved
http://y-soft.org

ANALYZER: auCDtect: CD records authenticity detector, version 0.8.2
Copyright (c) 2004 Oleg Berngardt. All rights reserved.
Copyright (c) 2004 Alexander Djourik. All rights reserved.


FILE: 20. Ho For It.flac
Size: 17321629 Hash: 189C913CF91DCF64AC1862B70E356E5C Accuracy: -m0
Conclusion: MPEG 95%
Signature: A75E36BA5D059B0DE42C22CF968A5F0E8B95E105
FILE: 19. The Glow.flac
Size: 20992050 Hash: 7567608A16D85F64EB97520A5E4F5B65 Accuracy: -m0
Conclusion: CDDA 100%
Signature: 28F1A54447D9C3B153BB7E9FD9D977FA5BB37873
FILE: 18. Golden Pussy.flac
Size: 20648692 Hash: B43BBD422D8C18F1BB0088EEC51C82CD Accuracy: -m0
Conclusion: MPEG 95%
Signature: 772F5B8835C4AE754F02B9F24AD37B63D0160D18
FILE: 17. Just Me.flac
Size: 18890690 Hash: 991B6D65928B923A19DAE91532C214E3 Accuracy: -m0
Conclusion: CDDA 100%
Signature: 607BAEC78389D10AB6C6DF3772542C6F66D359F0
FILE: 16. Wrong Speed.flac
Size: 21855698 Hash: CC86DBD60022727C0D2CAE83F45DEE80 Accuracy: -m0
Conclusion: MPEG 95%
Signature: 458B49EAA952B873645D98218246946E79C5D626
FILE: 15. Little More Time.flac
Size: 27118500 Hash: CC3E79385CEC7C65AC43561CB9D7D499 Accuracy: -m0
Conclusion: MPEG 95%
Signature: F5B6A76DC5AFEA4AC23A8C90FBC2AB44F0848537
FILE: 14. Mulita.flac
Size: 22424808 Hash: 29B98C903C3DCB24FC3331A935ABD945 Accuracy: -m0
Conclusion: CDDA 100%
Signature: 09C04A2517165DC848801CF28AB0EFF74F33D4BB
FILE: 13. Girl Blunt.flac
Size: 20900560 Hash: DC18B5C3BA58F232C9B8FACE883BFA63 Accuracy: -m0
Conclusion: MPEG 95%
Signature: D0337B94156C6A50DD0E2A200988376FEC2E5E19
FILE: 12. Summer Love.flac
Size: 8060165 Hash: 526E45EF8DB367FADCE67CA2A6A121B4 Accuracy: -m0
Conclusion: MPEG 95%
Signature: 1E14C9AD6C6F464BA6261F4AD376105CD630BBD0
FILE: 11. Manifesto.flac
Size: 15513518 Hash: 9D946DE29EE4B4C49CC1D60118DC7134 Accuracy: -m0
Conclusion: CDDA 100%
Signature: 4C4AF6F2F40E896109B72BE11DE81E1D84E97A80
FILE: 10. Make It Out Alive.flac
Size: 26126229 Hash: 579713440446E6507075DAA08CDC34FC Accuracy: -m0
Conclusion: CDDA 100%
Signature: 0422EB7C1B3CBDC4DF8A0F83AB1644CE948D020C
FILE: 09. Trouble On Central.flac
Size: 20092039 Hash: 07E2EC5D8DE5AC4657B58FFA7826DE09 Accuracy: -m0
Conclusion: CDDA 100%
Signature: 6122BCAFD513101AA45D6C95B4B5B0B791DED4D2
FILE: 08. Sweet Honey.flac
Size: 18365317 Hash: 7FD432D44816DE93A5F1C7D7192EE150 Accuracy: -m0
Conclusion: CDDA 100%
Signature: 0D9B65753D4C92DD8957C3E73229A7256E4AB5C7
FILE: 07. Easy.flac
Size: 12707275 Hash: 43E24760A92C7ABFE9BDCE625B529BA7 Accuracy: -m0
Conclusion: MPEG 95%
Signature: 7863A3398987DB536D0980A13945448C6CCAF071
FILE: 06. You Can Tell.flac
Size: 18003991 Hash: E3B9C10551B5B21A6B9D6CB7763F7BB2 Accuracy: -m0
Conclusion: MPEG 95%
Signature: 370334276AAD14F0FAD83DBBDF0E0EBE0CDD5F5D
FILE: 05. Coco Miyaki.flac
Size: 16716322 Hash: 93A3BC2DA0EB4D1650BD2E5C9AD2EF09 Accuracy: -m0
Conclusion: MPEG 95%
Signature: 3DEAD4DD9C53FACDB889DD7573FB42AEFE9D3DD0
FILE: 04. Life's A Bitch.flac
Size: 24261804 Hash: DF274E0C579789591FD96950A14176EB Accuracy: -m0
Conclusion: CDDA 100%
Signature: BEBF754AAD9E175EAB7649EE1E089B151185C0C0
FILE: 03. Cold War.flac
Size: 20233691 Hash: 9D2C65F8FD88A597C3E5AF011BD85004 Accuracy: -m0
Conclusion: CDDA 100%
Signature: B4BDD1B0C14181C08E0DDDBB3C8B2F4708718167
FILE: 02. Know Nothing.flac
Size: 20851901 Hash: BD7E202544A24684B27C57F635EE5F4A Accuracy: -m0
Conclusion: CDDA 100%
Signature: 4EEAA876FB64FB5FECF06973BF2D1DE5A148151A
FILE: 01. Banana Clip.flac
Size: 23846147 Hash: 54C01C5369ED943C128A445A12D3AFE4 Accuracy: -m0
Conclusion: CDDA 100%
Signature: 5A80643BE17FBA0DA7FC1289B8F62E5EC7502908
Вверх