• Для скачивания альбомов c Облако Mail.Ru и Яндекс.Диск на нашем сайте необходимо зарегистрироваться.
  • Заказать необходимый альбом Вы можете в нашем специальном разделе "Стол заказов ".
Twenty One Pilots - Trench (2018-10-05) [WEB / FLAC / lossless]

Twenty One Pilots - Trench (2018-10-05) [WEB / FLAC / lossless]

нет прав для скачивания с cloud.mail.ru

Исполнитель: Twenty One Pilots
Альбом: Trench
Носитель: WEB альбом
Дата выпуска: 2018-10-05
Жанр: Alternative
Формат: FLAC (tracks)
Битрейт: 760-912 kbps
Продолжительность: 00:56:09
Пароль на архив: grandorchestra

Треклист:
01. Jumpsuit [00:03:58]
02.
Levitate [00:02:25]
03.
Morph [00:04:18]
04.
My Blood [00:03:49]
05.
Chlorine [00:05:24]
06.
Smithereens [00:02:57]
07.
Neon Gravestones [00:04:00]
08.
The Hype [00:04:25]
09.
Nico And The Niners [00:03:45]
10.
Cut My Lip [00:04:42]
11.
Bandito [00:05:30]
12.
Pet Cheetah [00:03:18]
13.
Legend [00:02:52]
14.
Leave The City [00:04:40]

foobar2000 1.3.9 / Замер динамического диапазона (DR) 1.1.1
Дата отчёта: 2018-10-13 11:09:44

--------------------------------------------------------------------------------
Анализ: Twenty One Pilots / Trench
--------------------------------------------------------------------------------

DR Пики RMS Продолжительность трека
--------------------------------------------------------------------------------
DR4 0.00 дБ -7.60 дБ 3:59 01-Jumpsuit
DR5 -0.10 дБ -6.79 дБ 2:26 02-Levitate
DR5 -0.10 дБ -7.21 дБ 4:19 03-Morph
DR5 -0.10 дБ -7.78 дБ 3:49 04-My Blood
DR4 -0.10 дБ -7.86 дБ 5:24 05-Chlorine
DR6 -0.10 дБ -8.16 дБ 2:57 06-Smithereens
DR5 0.00 дБ -8.85 дБ 4:00 07-Neon Gravestones
DR5 -0.01 дБ -7.57 дБ 4:25 08-The Hype
DR6 -0.10 дБ -8.38 дБ 3:45 09-Nico And The Niners
DR5 -0.10 дБ -7.54 дБ 4:43 10-Cut My Lip
DR4 -0.10 дБ -7.93 дБ 5:31 11-Bandito
DR5 -0.01 дБ -6.56 дБ 3:18 12-Pet Cheetah
DR5 0.00 дБ -7.26 дБ 2:53 13-Legend
DR5 -0.10 дБ -9.82 дБ 4:40 14-Leave The City
--------------------------------------------------------------------------------

Количество треков: 14
Реальные значения DR: DR5

Частота: 44100 Гц
Каналов: 2
Разрядность: 16
Битрейт: 784 кбит/с
Кодек: FLAC
================================================================================
-----------------------

DON'T MODIFY THIS FILE

-----------------------

PERFORMER: auCDtect Task Manager, ver. 1.6.0 RC1 build 1.6.0.1
Copyright (c) 2008-2010 y-soft. All rights reserved
http://y-soft.org

ANALYZER: auCDtect: CD records authenticity detector, version 0.8.2
Copyright (c) 2004 Oleg Berngardt. All rights reserved.
Copyright (c) 2004 Alexander Djourik. All rights reserved.


FILE: 14. Leave The City.flac
Size: 27504450 Hash: AF10F575EDC9E8B981DC291BE914BC8D Accuracy: -m0
Conclusion: CDDA 100%
Signature: 2408F707CB30A434A9C5F65663052CF4FAA5F7C7
FILE: 13. Legend.flac
Size: 19699176 Hash: A269EF54DF125DCC3FCA10ADD87A483F Accuracy: -m0
Conclusion: CDDA 99%
Signature: 42420E43FC4F846E5D19F77A7A7D0C9F3A81B98D
FILE: 12. Pet Cheetah.flac
Size: 22170227 Hash: ECD5FFEA9A15CAD9FEA45DBAE9EE0696 Accuracy: -m0
Conclusion: CDDA 100%
Signature: C71EB24204728066B88B8117FA9264EC66FF12EF
FILE: 11. Bandito.flac
Size: 32967512 Hash: B815DA55CEA36EC720B7E364D34BE5A5 Accuracy: -m0
Conclusion: MPEG 95%
Signature: 4D49AC9594F3FCE3179763DA3A992611BF30B21C
FILE: 10. Cut My Lip.flac
Size: 31486787 Hash: A80FB3CFFAEAB24431B422288D4ACBAC Accuracy: -m0
Conclusion: CDDA 100%
Signature: CB695D8AF02EEFB95A431B125A4C383D68212472
FILE: 09. Nico And The Niners.flac
Size: 23264880 Hash: C34B58977BFE1E741AA666294B6D09C9 Accuracy: -m0
Conclusion: CDDA 100%
Signature: 799B9F7451DF3E467C9769D9AEA9B4B3CAE55E08
FILE: 08. The Hype.flac
Size: 29145345 Hash: 8C18791D4BE20814454E65A7E9B39574 Accuracy: -m0
Conclusion: MPEG 95%
Signature: CA76FAC64C6ED238D74944D3BBBAA24383DFB2FA
FILE: 07. Neon Gravestones.flac
Size: 22833552 Hash: E1166E32944A9CFFA6256E9A6DCD19E4 Accuracy: -m0
Conclusion: CDDA 100%
Signature: 5C72925647388E2E779BA6464ECA7D8A011B578D
FILE: 06. Smithereens.flac
Size: 18568759 Hash: F9A37FBAE0269C556474617B63BD170A Accuracy: -m0
Conclusion: CDDA 100%
Signature: A9CB786AB4580FE1E64B5437335F7FF5925373EB
FILE: 05. Chlorine.flac
Size: 34119132 Hash: F44EB84DD9AB3FA377C93F0093EA7FD5 Accuracy: -m0
Conclusion: CDDA 100%
Signature: 3741B8520CE8F4365D0674A9F5C10B0CC77CC4AF
FILE: 04. My Blood.flac
Size: 26059646 Hash: 2C8A354E5A4F439D99AE6400FDC5C5CF Accuracy: -m0
Conclusion: CDDA 100%
Signature: 1A29710DDDA3B38363E289EB037E9C8C87969E74
FILE: 03. Morph.flac
Size: 28530858 Hash: B224458A4C8541E3F780015D566DE1A0 Accuracy: -m0
Conclusion: MPEG 95%
Signature: 332969889A87BB94B22859E78A66087C72D096A6
FILE: 02. Levitate.flac
Size: 14649889 Hash: 2D0782DAD35D08AED0F393223294289A Accuracy: -m0
Conclusion: CDDA 100%
Signature: AA8FD025481B9DC76E22E73D1E67502AD5129511
FILE: 01. Jumpsuit.flac
Size: 24785672 Hash: F78BD3C193A76E7BFAB88BFE8E41ACD3 Accuracy: -m0
Conclusion: CDDA 99%
Signature: B824AB53F539BA1E45A47ABDDDE3ACBEDA3A3EA0
Вверх