• Для скачивания альбомов c Облако Mail.Ru и Яндекс.Диск на нашем сайте необходимо зарегистрироваться.
  • Заказать необходимый альбом Вы можете в нашем специальном разделе "Стол заказов ".
The Beatles - Let It Be (1970) (Remastered 2009) [WEB / FLAC / lossless]

The Beatles - Let It Be (1970) (Remastered 2009) [WEB / FLAC / lossless]

нет прав для скачивания с cloud.mail.ru

Исполнитель: The Beatles
Альбом: Let It Be (Remastered)
Носитель: WEB альбом
Дата выпуска: 1970
Жанр: Pop
Формат: FLAC (tracks)
Битрейт: 828-1038 kbps
Продолжительность: 00:35:10
Пароль на архив: grandorchestra

Треклист:
01. Two Of Us (Remastered 2009) [00:03:36]
02.
Dig A Pony (Remastered 2009) [00:03:55]
03.
Across The Universe (Remastered 2009) [00:03:48]
04.
I Me Mine (Remastered 2009) [00:02:25]
05.
Dig It (Remastered 2009) [00:00:50]
06.
Let It Be (Remastered 2009) [00:04:03]
07.
Maggie Mae (Remastered 2009) [00:00:40]
08.
I've Got A Feeling (Remastered 2009) [00:03:37]
09.
One After 909 (Remastered 2009) [00:02:53]
10.
The Long And Winding Road (Remastered 2009) [00:03:38]
11.
For You Blue (Remastered 2009) [00:02:32]
12.
Get Back (Remastered 2009) [00:03:09]

foobar2000 1.3.9 / Замер динамического диапазона (DR) 1.1.1
Дата отчёта: 2018-09-27 21:00:34

--------------------------------------------------------------------------------
Анализ: The Beatles / Let It Be (Remastered)
--------------------------------------------------------------------------------

DR Пики RMS Продолжительность трека
--------------------------------------------------------------------------------
DR11 -0.37 дБ -13.56 дБ 3:37 01-Two Of Us (Remastered 2009)
DR9 -0.35 дБ -11.46 дБ 3:55 02-Dig A Pony (Remastered 2009)
DR10 -2.01 дБ -13.67 дБ 3:48 03-Across The Universe (Remastered 2009)
DR9 -0.29 дБ -10.78 дБ 2:26 04-I Me Mine (Remastered 2009)
DR12 -0.38 дБ -15.65 дБ 0:50 05-Dig It (Remastered 2009)
DR9 -0.37 дБ -12.25 дБ 4:03 06-Let It Be (Remastered 2009)
DR10 -0.84 дБ -14.76 дБ 0:40 07-Maggie Mae (Remastered 2009)
DR9 -0.37 дБ -11.35 дБ 3:38 08-I've Got A Feeling (Remastered 2009)
DR8 -0.36 дБ -10.04 дБ 2:54 09-One After 909 (Remastered 2009)
DR9 -0.37 дБ -11.93 дБ 3:38 10-The Long And Winding Road (Remastered 2009)
DR10 -0.35 дБ -12.83 дБ 2:32 11-For You Blue (Remastered 2009)
DR9 -0.37 дБ -11.94 дБ 3:09 12-Get Back (Remastered 2009)
--------------------------------------------------------------------------------

Количество треков: 12
Реальные значения DR: DR10

Частота: 44100 Гц
Каналов: 2
Разрядность: 16
Битрейт: 828 кбит/с
Кодек: FLAC
================================================================================
-----------------------

DON'T MODIFY THIS FILE

-----------------------

PERFORMER: auCDtect Task Manager, ver. 1.6.0 RC1 build 1.6.0.1
Copyright (c) 2008-2010 y-soft. All rights reserved
http://y-soft.org

ANALYZER: auCDtect: CD records authenticity detector, version 0.8.2
Copyright (c) 2004 Oleg Berngardt. All rights reserved.
Copyright (c) 2004 Alexander Djourik. All rights reserved.


FILE: 12. Get Back (Remastered 2009).flac
Size: 19947905 Hash: 9705848586F605360E3B92336026EAD5 Accuracy: -m0
Conclusion: CDDA 100%
Signature: EC558BD0B224755CCA4D28F7BB55A4545A720281
FILE: 11. For You Blue (Remastered 2009).flac
Size: 16264738 Hash: E235D7B92CFCB8144A9FBEDDDCA14EA7 Accuracy: -m0
Conclusion: CDDA 100%
Signature: 16D0735D99D829F19540FAD6E359202A2A2172DF
FILE: 10. The Long And Winding Road (Remastered 2009).flac
Size: 24293115 Hash: A5B9A7693F35529931D4C1F92EBFBA5C Accuracy: -m0
Conclusion: CDDA 100%
Signature: 6770E8E9D38F9794FD1D61CE09A4D8DE3A9EA147
FILE: 09. One After 909 (Remastered 2009).flac
Size: 22911600 Hash: D0608D950B27C37E4F3E025950B809D5 Accuracy: -m0
Conclusion: CDDA 100%
Signature: 1341030E1F6AB614962DB19CD8F8604F74514A1D
FILE: 08. I've Got A Feeling (Remastered 2009).flac
Size: 26436334 Hash: F12223AD21F1A3DEE42225D4F922FD8C Accuracy: -m0
Conclusion: CDDA 100%
Signature: 39E6C5FDFD4E6E7476B49A40D4B937462DCAE0D4
FILE: 07. Maggie Mae (Remastered 2009).flac
Size: 4870318 Hash: E010B7CE9C2D6D51353AC7185D6D89DB Accuracy: -m0
Conclusion: CDDA 99%
Signature: F144E9BAD737D1F1558FE984896CB413CF78B5EB
FILE: 06. Let It Be (Remastered 2009).flac
Size: 27870896 Hash: 8B0F5A2ECBD2F35E76E88532D81B08A2 Accuracy: -m0
Conclusion: CDDA 99%
Signature: CA175D3BBB9BEE9101B20913A883C3BC6DD75311
FILE: 05. Dig It (Remastered 2009).flac
Size: 5697761 Hash: 220EF9571EB192A17242ED0F0394EC62 Accuracy: -m0
Conclusion: CDDA 100%
Signature: A7154DD37AB1CE62BCBA488BE62D3E4C304EA633
FILE: 04. I Me Mine (Remastered 2009).flac
Size: 17433271 Hash: 5301AAEA54591014ECAEEBDA312CB524 Accuracy: -m0
Conclusion: CDDA 100%
Signature: 572FE79D0F47F09602793E5388894E187D2BD9FA
FILE: 03. Across The Universe (Remastered 2009).flac
Size: 25456255 Hash: 6564401590E2E9F4DFE7F4CCADAB3E7F Accuracy: -m0
Conclusion: CDDA 54%
Signature: 1B8281635491780517A33589D89F14A4401BEED2
FILE: 02. Dig A Pony (Remastered 2009).flac
Size: 27106176 Hash: 0C1593667EEA012B5C17D14137D261EB Accuracy: -m0
Conclusion: CDDA 100%
Signature: 66B176691DAA985DFDF989D8CC18C66D25E11676
FILE: 01. Two Of Us (Remastered 2009).flac
Size: 25063580 Hash: FA18FCDC1FFFF1A2F4F8026BEB819395 Accuracy: -m0
Conclusion: CDDA 100%
Signature: B11CE80E8993C42B4A2DEDBB92FBDE324578B6AF
Вверх