• Для скачивания альбомов c Облако Mail.Ru и Яндекс.Диск на нашем сайте необходимо зарегистрироваться.
  • Заказать необходимый альбом Вы можете в нашем специальном разделе "Стол заказов ".
The Beatles - Back In The U.S.S.R. (2018-09-24) [WEB / FLAC / lossless]

The Beatles - Back In The U.S.S.R. (2018-09-24) [WEB / FLAC / lossless]

нет прав для скачивания с cloud.mail.ru
  • Автор rdf
  • Дата создания
  • Рекомендуемый

Исполнитель: The Beatles
Альбом: Back In The U.S.S.R.
Носитель: WEB альбом
Дата выпуска: 2018/2018-09-24
Жанр: Pop
Формат: FLAC (tracks)
Битрейт: 757-911 kbps
Продолжительность: 00:08:53
Пароль на архив: grandorchestra

Треклист:
01. Back In The U.S.S.R. (2018 Mix) [00:02:43]
02. Back In The U.S.S.R. (Take 5 / Instrumental Backing Track) [00:03:09]
03. Back In The U.S.S.R. (Esher Demo) [00:02:59]

foobar2000 1.3.9 / Замер динамического диапазона (DR) 1.1.1
Дата отчёта: 2018-09-26 22:57:26

--------------------------------------------------------------------------------
Анализ: The Beatles / Back In The U.S.S.R.
--------------------------------------------------------------------------------

DR Пики RMS Продолжительность трека
--------------------------------------------------------------------------------
DR12 -0.21 дБ -13.27 дБ 3:10 2/2-Back In The U.S.S.R. (Take 5 / Instrumental Backing Track)
DR9 -0.01 дБ -10.76 дБ 3:00 3/3-Back In The U.S.S.R. (Esher Demo)
DR10 0.00 дБ -11.61 дБ 2:43 1/1-Back In The U.S.S.R. (2018 Mix)
--------------------------------------------------------------------------------

Количество треков: 3
Реальные значения DR: DR10

Частота: 44100 Гц
Каналов: 2
Разрядность: 16
Битрейт: 911 кбит/с
Кодек: FLAC
================================================================================
-----------------------

DON'T MODIFY THIS FILE

-----------------------

PERFORMER: auCDtect Task Manager, ver. 1.6.0 RC1 build 1.6.0.1
Copyright (c) 2008-2010 y-soft. All rights reserved
http://y-soft.org

ANALYZER: auCDtect: CD records authenticity detector, version 0.8.2
Copyright (c) 2004 Oleg Berngardt. All rights reserved.
Copyright (c) 2004 Alexander Djourik. All rights reserved.


FILE: 03. Back In The U.S.S.R. (Esher Demo).flac
Size: 18907681 Hash: 01905BB72E387678409E9C6FA49674EF Accuracy: -m0
Conclusion: CDDA 100%
Signature: 05457EC0322ADCDA1E606D246743832C57A3CB48
FILE: 02. Back In The U.S.S.R. (Take 5 Instrumental Backing Track).flac
Size: 17984057 Hash: 3FFD502DC24EE6D05560ABC6BDD9D369 Accuracy: -m0
Conclusion: CDDA 100%
Signature: 69DBC34F3733F9BBA57491211D716A5CFE77B3E7
FILE: 01. Back In The U.S.S.R. (2018 Mix).flac
Size: 18627152 Hash: 9EFA2205AD05EF27B5E29BAB81953802 Accuracy: -m0
Conclusion: CDDA 100%
Signature: 1D2F6959AB0380FCA525841AFA627B2271C7C737
Вверх