• Для скачивания альбомов c Облако Mail.Ru и Яндекс.Диск на нашем сайте необходимо зарегистрироваться.
  • Заказать необходимый альбом Вы можете в нашем специальном разделе "Стол заказов ".
Spoon - Big Emotion (2018) [WEB / FLAC / lossless]

Spoon - Big Emotion (2018) [WEB / FLAC / lossless]

нет прав для скачивания с cloud.mail.ru

Исполнитель: Spoon
Альбом: Big Emotion
Носитель: WEB альбом
Дата выпуска: 2018
Жанр: New Age
Формат: FLAC (tracks)
Битрейт: 500-976 kbps
Продолжительность: 00:50:59
Пароль на архив: grandorchestra

Треклист:
01. Paradise [00:05:52]
02.
Spiritual Dream [00:07:33]
03.
Pipe Dream [00:06:50]
04.
Fantasize [00:05:02]
05.
Chill out Man [00:04:47]
06.
Imprint [00:05:25]
07.
Abandoning into the Void [00:03:06]
08.
Icy Sound [00:03:44]
09.
Cinematic Sound [00:03:20]
10.
Sophisticated Environment [00:05:17]

foobar2000 1.3.9 / Замер динамического диапазона (DR) 1.1.1
Дата отчёта: 2018-10-15 19:51:29

--------------------------------------------------------------------------------
Анализ: Spoon / Big Emotion
--------------------------------------------------------------------------------

DR Пики RMS Продолжительность трека
--------------------------------------------------------------------------------
DR8 0.00 дБ -9.29 дБ 5:52 01-Paradise
DR10 -1.53 дБ -14.76 дБ 7:34 02-Spiritual Dream
DR7 0.00 дБ -9.39 дБ 6:50 03-Pipe Dream
DR7 0.00 дБ -8.23 дБ 5:02 04-Fantasize
DR7 0.00 дБ -8.88 дБ 4:47 05-Chill out Man
DR10 -0.39 дБ -13.48 дБ 5:26 06-Imprint
DR7 -0.74 дБ -11.68 дБ 3:06 07-Abandoning into the Void
DR10 0.00 дБ -13.50 дБ 3:44 08-Icy Sound
DR7 0.00 дБ -8.64 дБ 3:20 09-Cinematic Sound
DR4 -2.26 дБ -8.41 дБ 5:17 10-Sophisticated Environment
--------------------------------------------------------------------------------

Количество треков: 10
Реальные значения DR: DR8

Частота: 44100 Гц
Каналов: 2
Разрядность: 16
Битрейт: 935 кбит/с
Кодек: FLAC
================================================================================
-----------------------

DON'T MODIFY THIS FILE

-----------------------

PERFORMER: auCDtect Task Manager, ver. 1.6.0 RC1 build 1.6.0.1
Copyright (c) 2008-2010 y-soft. All rights reserved
http://y-soft.org

ANALYZER: auCDtect: CD records authenticity detector, version 0.8.2
Copyright (c) 2004 Oleg Berngardt. All rights reserved.
Copyright (c) 2004 Alexander Djourik. All rights reserved.


FILE: 10. Sophisticated Environment.flac
Size: 37384877 Hash: 13AFAB9361CC7304F6A98C52172048FB Accuracy: -m0
Conclusion: MPEG 95%
Signature: A26298215B5CF1DF0F08A663B7A00E3206E95526
FILE: 09. Cinematic Sound.flac
Size: 23498999 Hash: AFA1ADE82B7004B23D79E6D64A594523 Accuracy: -m0
Conclusion: CDDA 100%
Signature: 30F0D8EEB1C540FBD7AA74B9B19564EB683B01C2
FILE: 08. Icy Sound.flac
Size: 19361664 Hash: 05B8A9D786F8024564C3B9B02F6D52BB Accuracy: -m0
Conclusion: CDDA 100%
Signature: 66F6101A53BDF13B685EA232FA016F9488CBBF1F
FILE: 07. Abandoning into the Void.flac
Size: 15748038 Hash: 5B02ABD192C72120BA6DD90B44832AE7 Accuracy: -m0
Conclusion: CDDA 100%
Signature: 50B78FEBAD9A2D5B4B679B9103FC2AF64DD1FCC1
FILE: 06. Imprint.flac
Size: 20702737 Hash: 502942DD4B2E6F4139B6E3F0FE10863C Accuracy: -m0
Conclusion: MPEG 95%
Signature: 7653360B18533CBAFCC256833D779182490BA8E0
FILE: 05. Chill out Man.flac
Size: 35336716 Hash: 21F86287127F011B4600DF1134E824A2 Accuracy: -m0
Conclusion: CDDA 100%
Signature: 731D3F10275731A1EE0451C2822D5D54AEF1D299
FILE: 04. Fantasize.flac
Size: 36393538 Hash: BF7A284C1332734A57C49FC3CAE0BBA2 Accuracy: -m0
Conclusion: CDDA 100%
Signature: DDC7032CC868047EE8FDA3105321A036187570A3
FILE: 03. Pipe Dream.flac
Size: 39995087 Hash: 479E37AB173A5CC653694FB57D9AEB93 Accuracy: -m0
Conclusion: CDDA 100%
Signature: 620488F98DF05A24B278B5123DDD7EA87E593090
FILE: 02. Spiritual Dream.flac
Size: 34036476 Hash: A96736781CA144D1E156545B273D622C Accuracy: -m0
Conclusion: MPEG 100%
Signature: B33DF6F001FC79B40B1B8486B82DB7503D10E274
FILE: 01. Paradise.flac
Size: 34031623 Hash: A6283F4DB46FEC39BBFBA9C843224B88 Accuracy: -m0
Conclusion: CDDA 100%
Signature: 3E48E8B8BF3AEBEBB3EED2DC01011CA15AA31C5A
Вверх