• Для скачивания альбомов c Облако Mail.Ru и Яндекс.Диск на нашем сайте необходимо зарегистрироваться.
  • Заказать необходимый альбом Вы можете в нашем специальном разделе "Стол заказов ".
Seventh Wonder - Tiara (2018) [WEB / FLAC / lossless]

Seventh Wonder - Tiara (2018) [WEB / FLAC / lossless]

нет прав для скачивания с cloud.mail.ru

Исполнитель: Seventh Wonder
Альбом: Tiara
Носитель: WEB альбом
Дата выпуска: 2018
Жанр: Rock
Формат: FLAC (tracks)
Битрейт: 763-1077 kbps
Продолжительность: 01:10:00
Пароль на архив: grandorchestra

Треклист:
01. Arrival [00:01:30]
02.
The Everones [00:06:13]
03.
Dream Machines [00:05:38]
04.
Against the Grain [00:06:58]
05.
Victorious [00:04:55]
06.
Tiara's Song (Farewell Pt. 1) [00:07:16]
07.
Goodnight (Farewell Pt. 2) [00:07:10]
08.
Beyond Today (Farewell Pt. 3) [00:05:06]
09.
The Truth [00:04:17]
10.
By the Light of the Funeral Pyres [00:03:54]
11.
Damnation Below [00:06:44]
12.
Procession [00:00:45]
13.
Exhale [00:09:30]

foobar2000 1.3.9 / Замер динамического диапазона (DR) 1.1.1
Дата отчёта: 2018-10-14 21:37:52

--------------------------------------------------------------------------------
Анализ: Seventh Wonder / Tiara
--------------------------------------------------------------------------------

DR Пики RMS Продолжительность трека
--------------------------------------------------------------------------------
DR7 -0.16 дБ -9.69 дБ 1:30 1/1-Arrival
DR5 -0.16 дБ -6.18 дБ 6:13 2/2-The Everones
DR6 -0.16 дБ -6.99 дБ 5:38 3/3-Dream Machines
DR5 -0.16 дБ -7.62 дБ 6:59 4/4-Against the Grain
DR5 -0.16 дБ -6.24 дБ 4:55 5/5-Victorious
DR6 -0.16 дБ -6.89 дБ 7:17 6/6-Tiara's Song (Farewell Pt. 1)
DR6 -0.16 дБ -8.63 дБ 7:11 7/7-Goodnight (Farewell Pt. 2)
DR7 -0.16 дБ -9.91 дБ 5:06 8/8-Beyond Today (Farewell Pt. 3)
DR6 -0.16 дБ -8.19 дБ 4:17 9/9-The Truth
DR5 -0.15 дБ -6.52 дБ 3:54 10/10-By the Light of the Funeral Pyres
DR6 -0.16 дБ -7.16 дБ 6:45 11/11-Damnation Below
DR9 -0.38 дБ -11.37 дБ 0:45 12/12-Procession
DR6 -0.16 дБ -7.26 дБ 9:30 13/13-Exhale
--------------------------------------------------------------------------------

Количество треков: 13
Реальные значения DR: DR6

Частота: 44100 Гц
Каналов: 2
Разрядность: 16
Битрейт: 1031 кбит/с
Кодек: FLAC
================================================================================
-----------------------

DON'T MODIFY THIS FILE

-----------------------

PERFORMER: auCDtect Task Manager, ver. 1.6.0 RC1 build 1.6.0.1
Copyright (c) 2008-2010 y-soft. All rights reserved
http://y-soft.org

ANALYZER: auCDtect: CD records authenticity detector, version 0.8.2
Copyright (c) 2004 Oleg Berngardt. All rights reserved.
Copyright (c) 2004 Alexander Djourik. All rights reserved.


FILE: 13. Exhale.flac
Size: 73464612 Hash: C5211261AD2D39DCE56B934D9EE6A7E8 Accuracy: -m0
Conclusion: CDDA 100%
Signature: 09ECB0AB149863201F856435A492FA119EC2605B
FILE: 12. Procession.flac
Size: 4311219 Hash: A1F86FF9A28D87E1267B59F7FB7B3884 Accuracy: -m0
Conclusion: CDDA 100%
Signature: FB2C871A70DB761A235B398D179BABC3EE52802E
FILE: 11. Damnation Below.flac
Size: 52828349 Hash: CC0D5C8EBBB652F7C18995CE88A642EE Accuracy: -m0
Conclusion: CDDA 99%
Signature: 11F1B5C49DD816021966AFE8C31438EE227A19FA
FILE: 10. By The Light Of The Funeral Pyres.flac
Size: 31577799 Hash: 60DB711123B81452F1BB3D9B88C672FA Accuracy: -m0
Conclusion: CDDA 100%
Signature: 1EE41EFA0FA8CCD5ACE1852A14FE2B0277F3EB98
FILE: 09. The Truth.flac
Size: 27278411 Hash: 482F5797540D64A01C0DA518B0D185F1 Accuracy: -m0
Conclusion: CDDA 100%
Signature: A522C431ECD50B98B2E3285AA7378FD9C4E685B3
FILE: 08. Beyond Today (Farewell Pt. 3).flac
Size: 33544293 Hash: FE253568A6AF7AC6487C188CC45EAC15 Accuracy: -m0
Conclusion: CDDA 100%
Signature: 131194AEB012667E7B0E38DB8C4BD9D9712262A0
FILE: 07. Goodnight (Farewell Pt. 2).flac
Size: 50225300 Hash: 9241E68A0104576E553A978A29D56341 Accuracy: -m0
Conclusion: CDDA 100%
Signature: B96CE21C4ABCABFE09BBA4D9E9C933BDECBBC168
FILE: 06. Tiara's Song (Farewell Pt. 1).flac
Size: 57582159 Hash: B93DAD83883B956D82D4FC413DD82879 Accuracy: -m0
Conclusion: CDDA 100%
Signature: ECE3AB90EA199BD46D3A57D298ED261E8F46BBA7
FILE: 05. Victorious.flac
Size: 39642046 Hash: BFF16612F2C8241DED37CC97E4C7AE30 Accuracy: -m0
Conclusion: CDDA 100%
Signature: 027B78AE6FE8BB2810CC3BC1E9EBCB6B7D806F0D
FILE: 04. Against The Grain.flac
Size: 51715630 Hash: EDDC6EC625F1C16A4B506B0256A9CAA3 Accuracy: -m0
Conclusion: CDDA 100%
Signature: F4E589A5042A3450791D02B9A5CA3BF15DC2D34A
FILE: 03. Dream Machines.flac
Size: 43851597 Hash: B967399A0FE4073239B27660A30D5D29 Accuracy: -m0
Conclusion: CDDA 100%
Signature: E860A78041A32DDF858D0C032E4A8EBA4705FF86
FILE: 02. The Everones.flac
Size: 49478373 Hash: 66315BBC907A06A5B6CDB9906D57A79D Accuracy: -m0
Conclusion: CDDA 99%
Signature: 9203E90DAE481CD19E3FD75C520EBEDAFA28BB34
FILE: 01. Arrival.flac
Size: 9804087 Hash: 31AF442EDF854C83CE4BAD1B5F78C915 Accuracy: -m0
Conclusion: CDDA 100%
Signature: 9526CCC3A8E34D7EDB7A96F52F8E49BA7EB67F8E
Вверх