• Для скачивания альбомов c Облако Mail.Ru и Яндекс.Диск на нашем сайте необходимо зарегистрироваться.
  • Заказать необходимый альбом Вы можете в нашем специальном разделе "Стол заказов ".
Sebastian Yatra - Mantra (2018) [WEB / FLAC / lossless]

Sebastian Yatra - Mantra (2018) [WEB / FLAC / lossless]

нет прав для скачивания с cloud.mail.ru

Исполнитель: Sebastian Yatra
Альбом: Mantra
Носитель: WEB альбом
Дата выпуска: 2018
Жанр: Pop
Формат: FLAC (tracks)
Битрейт: 832-1087 kbps
Продолжительность: 00:56:06
Скачать: DepositFiles | TurboBit
Пароль на архив: grandorchestra

Треклист:
01. Sebastian Yatra, Dalmata - Sutra [00:03:23]
02.
Sebastian Yatra, Nacho, Wisin - Alguien Robo [00:03:44]
03.
Sebastian Yatra - Quiero Decirte [00:03:46]
04.
Sebastian Yatra - Devuélveme El Corazón [00:04:03]
05.
Carlos Vives, Sebastian Yatra - Robarte Un Beso [00:03:14]
06.
Sebastian Yatra - Mantra [00:03:28]
07.
Sebastian Yatra - Sin Ti [00:03:09]
08.
Sebastian Yatra - Como Mirarte [00:03:48]
09.
Sebastian Yatra - Traicionera [00:03:49]
10.
Sebastian Yatra - En El Party [00:03:06]
11.
Sebastian Yatra, Cali - Como Si Nada [00:03:29]
12.
Sebastian Yatra - Magdalena [00:02:57]
13.
Sebastian Yatra, Gianluca Vacchi - Love [00:03:10]
14.
Sebastian Yatra - No Hay Nadie Más [00:03:19]
15.
Sebastian Yatra, Luis Figueroa, Lary Over - Por Perro [00:04:05]
16.
Sebastian Yatra, Cosculluela, Cali Y El Dandee - Traicionera (Remix) [00:03:29]

foobar2000 1.3.9 / Замер динамического диапазона (DR) 1.1.1
Дата отчёта: 2018-11-07 20:17:06

--------------------------------------------------------------------------------
Анализ: Carlos Vives, Sebastian Yatra / Mantra (1)
Sebastian Yatra, Cali / Mantra (2)
Sebastian Yatra, Cosculluela, Cali Y El Dandee / Mantra (3)
Sebastian Yatra, Dalmata / Mantra (4)
Sebastian Yatra, Gianluca Vacchi / Mantra (5)
Sebastian Yatra, Luis Figueroa, Lary Over / Mantra (6)
Sebastian Yatra, Nacho, Wisin / Mantra (7)
Sebastian Yatra / Mantra (8-16)
--------------------------------------------------------------------------------

DR Пики RMS Продолжительность трека
--------------------------------------------------------------------------------
DR6 -1.30 дБ -8.55 дБ 3:15 05/16-Robarte Un Beso
DR4 0.00 дБ -5.67 дБ 3:30 11/16-Como Si Nada
DR6 -0.01 дБ -7.46 дБ 3:29 16/16-Traicionera (Remix)
DR5 0.00 дБ -6.30 дБ 3:23 01/16-Sutra
DR5 0.00 дБ -6.83 дБ 3:11 13/16-Love
DR6 -0.01 дБ -7.16 дБ 4:05 15/16-Por Perro
DR5 0.00 дБ -6.62 дБ 3:44 02/16-Alguien Robo
DR6 0.00 дБ -8.39 дБ 3:46 03/16-Quiero Decirte
DR6 0.00 дБ -9.42 дБ 4:03 04/16-Devuélveme El Corazón
DR5 0.00 дБ -7.06 дБ 3:28 06/16-Mantra
DR6 0.00 дБ -8.19 дБ 3:10 07/16-Sin Ti
DR6 -0.01 дБ -9.97 дБ 3:48 08/16-Como Mirarte
DR7 -0.01 дБ -8.53 дБ 3:49 09/16-Traicionera
DR6 0.00 дБ -7.41 дБ 3:06 10/16-En El Party
DR5 -1.00 дБ -9.00 дБ 2:57 12/16-Magdalena
DR7 0.00 дБ -8.36 дБ 3:20 14/16-No Hay Nadie Más
--------------------------------------------------------------------------------

Количество треков: 16
Реальные значения DR: DR6

Частота: 44100 Гц
Каналов: 2
Разрядность: 16
Битрейт: 832 кбит/с
Кодек: FLAC
================================================================================
-----------------------

DON'T MODIFY THIS FILE

-----------------------

PERFORMER: auCDtect Task Manager, ver. 1.6.0 RC1 build 1.6.0.1
Copyright (c) 2008-2010 y-soft. All rights reserved
http://y-soft.org

ANALYZER: auCDtect: CD records authenticity detector, version 0.8.2
Copyright (c) 2004 Oleg Berngardt. All rights reserved.
Copyright (c) 2004 Alexander Djourik. All rights reserved.


FILE: 16. Traicionera (Remix).flac
Size: 26220333 Hash: 469ED9D1873EB5A3A3FC3075FA599C26 Accuracy: -m0
Conclusion: CDDA 100%
Signature: 8682CBC9D22E83A5C52541886087CE3F8E735F2B
FILE: 15. Por Perro.flac
Size: 30519524 Hash: C3FC0DEDF6E7152117A5C03B7B68A3C0 Accuracy: -m0
Conclusion: CDDA 100%
Signature: 1524966C2CFBFB75456BDEE794B543CD97506F35
FILE: 14. No Hay Nadie Más.flac
Size: 20936995 Hash: 4ED3C07F5CB99DF7840FAC6D1C60FC2D Accuracy: -m0
Conclusion: MPEG 95%
Signature: 035149345B08B6A6BE52D446C68254B2187A7A1E
FILE: 13. Love.flac
Size: 26086021 Hash: 8F4F3C43208300B437A9CD10B76D5CA3 Accuracy: -m0
Conclusion: CDDA 100%
Signature: F71C18A6B4C131B8D9F094AA42E690C477AA636C
FILE: 12. Magdalena.flac
Size: 19350362 Hash: CA5E72ADBFFD99DCDEC0CBA4064AFE05 Accuracy: -m0
Conclusion: CDDA 99%
Signature: 8ADF9F796356603C2919934CC1078660E45A9B58
FILE: 11. Como Si Nada.flac
Size: 24485468 Hash: 8DDD41DDD073C7679496607ACBBBFB63 Accuracy: -m0
Conclusion: CDDA 100%
Signature: A10C6C84AFBB177E7E7E06501990AA7115FDA92B
FILE: 10. En El Party.flac
Size: 22180404 Hash: 008583B1F8ADBB0C75C52F6ED0B4EAC2 Accuracy: -m0
Conclusion: CDDA 100%
Signature: 3398BEEFF16E7C689A612EE791831BE975230B81
FILE: 09. Traicionera.flac
Size: 27568756 Hash: 8CFA3B43E50D2457A692353B48B41FAD Accuracy: -m0
Conclusion: CDDA 100%
Signature: 36D71E946828E2F67897B038EC1A04BCAE254B7C
FILE: 08. Como Mirarte.flac
Size: 25196904 Hash: 210F9CC9F298E0640E8EAD8B384AFA40 Accuracy: -m0
Conclusion: MPEG 98%
Signature: 89CC5729A22DF7628F10411FF8F1CEA92162FACF
FILE: 07. Sin Ti.flac
Size: 22567025 Hash: FAACE8B92E55ADC1AB011B340E8D4B4E Accuracy: -m0
Conclusion: CDDA 100%
Signature: 025114166E9E78A8567F890AC4217543C91F37C2
FILE: 06. Mantra.flac
Size: 26080930 Hash: 4D64411B530B081507E8FAA31A7A2043 Accuracy: -m0
Conclusion: CDDA 100%
Signature: 56DFE1E41CCD939C254C1087625B784D097B093D
FILE: 05. Robarte Un Beso.flac
Size: 24867913 Hash: C9E90DB927BECC834E82C3BB637D85C8 Accuracy: -m0
Conclusion: CDDA 99%
Signature: D109562ACDEB891EDFD6DFC98EDC07E514B6BF27
FILE: 04. Devuélveme El Corazón.flac
Size: 27030791 Hash: B08EFFE92F7EA051509598104FFCFD6D Accuracy: -m0
Conclusion: CDDA 100%
Signature: 356D0EC09AB83C39A9CFCF84B4CAB18FA4860C5E
FILE: 03. Quiero Decirte.flac
Size: 27430955 Hash: 986E705D41B4F7122AB1D332762B47BA Accuracy: -m0
Conclusion: CDDA 100%
Signature: FFE8219D41A877490A274ACFD26618C9341D5B2D
FILE: 02. Alguien Robo.flac
Size: 30419335 Hash: 69849ABEA1BB7B7D3B2AF3248A0F2B64 Accuracy: -m0
Conclusion: CDDA 100%
Signature: 3CD6594DD8979F2B192AC10FD3202B4A51634475
FILE: 01. Sutra.flac
Size: 25043267 Hash: F35E118CD9082C1E29EA5B2027673C59 Accuracy: -m0
Conclusion: MPEG 95%
Signature: 107BA408EE5E463C6DC4CF5E8827EBEDB4F94744
Вверх