• Для скачивания альбомов c Облако Mail.Ru и Яндекс.Диск на нашем сайте необходимо зарегистрироваться.
  • Заказать необходимый альбом Вы можете в нашем специальном разделе "Стол заказов ".
Rod Stewart - Blood Red Roses (Deluxe Version) (2018) [WEB / FLAC / lossless]

Rod Stewart - Blood Red Roses (Deluxe Version) (2018) [WEB / FLAC / lossless]

нет прав для скачивания с cloud.mail.ru

Исполнитель: Rod Stewart
Альбом: Blood Red Roses (Deluxe Version)
Носитель: WEB альбом
Дата выпуска: 2018
Жанр: Rock
Формат: FLAC (tracks)
Битрейт: 825-1065 kbps
Продолжительность: 01:02:53
Пароль на архив: grandorchestra

Треклист:
01. Look In Her Eyes [00:04:11]
02.
Hole In My Heart [00:03:26]
03.
Farewell [00:04:15]
04.
Didn't I (feat. Bridget Cady) [00:04:00]
05.
Blood Red Roses [00:03:40]
06.
Grace [00:04:52]
07.
Give Me Love [00:04:07]
08.
Rest Of My Life [00:03:27]
09.
Rollin' & Tumblin' [00:03:37]
10.
Julia [00:03:35]
11.
Honey Gold [00:04:43]
12.
Vegas Shuffle [00:03:46]
13.
Cold Old London (feat. Bridget Cady) [00:03:41]
14.
Who Designed The Snowflake (Bonus Track) [00:03:07]
15.
It Was A Very Good Year (Bonus Track) [00:05:06]
16.
I Don't Want To Get Married (Bonus Track) [00:03:12]

foobar2000 1.3.9 / Замер динамического диапазона (DR) 1.1.1
Дата отчёта: 2018-09-29 11:09:56

--------------------------------------------------------------------------------
Анализ: Rod Stewart / Blood Red Roses (Deluxe Version)
--------------------------------------------------------------------------------

DR Пики RMS Продолжительность трека
--------------------------------------------------------------------------------
DR5 -0.09 дБ -7.52 дБ 4:12 01-Look In Her Eyes
DR5 -0.09 дБ -6.29 дБ 3:27 02-Hole In My Heart
DR5 -0.09 дБ -6.76 дБ 4:16 03-Farewell
DR4 -0.09 дБ -6.25 дБ 4:01 04-Didn't I (feat. Bridget Cady)
DR5 -0.09 дБ -5.97 дБ 3:41 05-Blood Red Roses
DR7 -0.09 дБ -9.58 дБ 4:52 06-Grace
DR4 -0.09 дБ -5.99 дБ 4:08 07-Give Me Love
DR5 -0.09 дБ -6.33 дБ 3:28 08-Rest Of My Life
DR6 -0.09 дБ -7.28 дБ 3:37 09-Rollin' & Tumblin'
DR6 -0.09 дБ -7.10 дБ 3:35 10-Julia
DR5 -0.09 дБ -7.09 дБ 4:44 11-Honey Gold
DR6 -0.09 дБ -6.79 дБ 3:47 12-Vegas Shuffle
DR6 -0.09 дБ -8.93 дБ 3:41 13-Cold Old London (feat. Bridget Cady)
DR11 -0.10 дБ -12.72 дБ 3:07 14-Who Designed The Snowflake (Bonus Track)
DR8 -0.09 дБ -11.59 дБ 5:06 15-It Was A Very Good Year (Bonus Track)
DR5 -0.09 дБ -6.66 дБ 3:12 16-I Don't Want To Get Married (Bonus Track)
--------------------------------------------------------------------------------

Количество треков: 16
Реальные значения DR: DR6

Частота: 44100 Гц
Каналов: 2
Разрядность: 16
Битрейт: 1003 кбит/с
Кодек: FLAC
================================================================================
-----------------------

DON'T MODIFY THIS FILE

-----------------------

PERFORMER: auCDtect Task Manager, ver. 1.6.0 RC1 build 1.6.0.1
Copyright (c) 2008-2010 y-soft. All rights reserved
http://y-soft.org

ANALYZER: auCDtect: CD records authenticity detector, version 0.8.2
Copyright (c) 2004 Oleg Berngardt. All rights reserved.
Copyright (c) 2004 Alexander Djourik. All rights reserved.


FILE: 16. I Don't Want To Get Married (Bonus Track).flac
Size: 24395512 Hash: CBDCD6DB068F04E7B5DF749043AD7F1C Accuracy: -m0
Conclusion: CDDA 100%
Signature: 5AFD199FA44EA1598AB9276C16D9E35C24C40FDA
FILE: 15. It Was A Very Good Year (Bonus Track).flac
Size: 31942632 Hash: 1D698B105D914C7C8F63F72D0DB299E8 Accuracy: -m0
Conclusion: CDDA 100%
Signature: 58250FF2E59E3459FCA6C3D38EDC853C992B3DAE
FILE: 14. Who Designed The Snowflake (Bonus Track).flac
Size: 19923761 Hash: 2943025654D30F49CA7A78BF42C5F5C9 Accuracy: -m0
Conclusion: CDDA 99%
Signature: 7A1E96976F1B5F00D62225636A62A7FCAF343ECC
FILE: 13. Cold Old London (feat. Bridget Cady).flac
Size: 24497462 Hash: C6E03977C7349E197B3B7B5B4D27A739 Accuracy: -m0
Conclusion: CDDA 100%
Signature: 3F46BF03D8158FCE5FF65E7F0D77B63BC3BF0807
FILE: 12. Vegas Shuffle.flac
Size: 29910865 Hash: DED3CE1E92AFEBCF6C25714ED113A4E8 Accuracy: -m0
Conclusion: CDDA 100%
Signature: F5E23DE94C01A603494D7EBA9746C98EA7A95170
FILE: 11. Honey Gold.flac
Size: 35014819 Hash: 46EAF21143A2E92EB00C270E57208715 Accuracy: -m0
Conclusion: CDDA 100%
Signature: 3F76190488321F080208B2EE0A4DC54882CCE242
FILE: 10. Julia.flac
Size: 28633992 Hash: 755F8EE4EF40B5D071F4839AF43B664F Accuracy: -m0
Conclusion: CDDA 100%
Signature: 4A07FA104268FD7D9CD622CC15B178576A8ACCC1
FILE: 09. Rollin' & Tumblin'.flac
Size: 28792254 Hash: 8530F6B1C86522B48F0EEE3FFABB2C33 Accuracy: -m0
Conclusion: CDDA 100%
Signature: 571D5B3E3D330D66462B27757E5B6929D7C2D844
FILE: 08. Rest Of My Life.flac
Size: 27174595 Hash: AF706DB8B8DBB70A2203A4783B8044FE Accuracy: -m0
Conclusion: CDDA 100%
Signature: 2C178CBB26C1BD656F940A40AA8B1C53C3027599
FILE: 07. Give Me Love.flac
Size: 32430863 Hash: 15864112B9681C8C6636BBA7CB82B981 Accuracy: -m0
Conclusion: CDDA 100%
Signature: 8DBDCB75199F275C1E63A0451CD6441CFE7137FE
FILE: 06. Grace.flac
Size: 33029813 Hash: 80358A6799DA1F9546294F21A72537C5 Accuracy: -m0
Conclusion: CDDA 100%
Signature: 64A266EA106365B5E2CE020EEA5A3662E886AB7D
FILE: 05. Blood Red Roses.flac
Size: 29702447 Hash: 6DB6FBE275FA6C08D5BADFDDCFACC438 Accuracy: -m0
Conclusion: CDDA 100%
Signature: 16E7D4CD60917F4090682C9FAE20BF53A2A12585
FILE: 04. Didn't I (feat. Bridget Cady).flac
Size: 29896059 Hash: 5F0E5F7A3EDF3B4DE26C5E795270F099 Accuracy: -m0
Conclusion: CDDA 100%
Signature: B3E74B8C4C1164B23DE2F22D05D6B91E9CDF68C2
FILE: 03. Farewell.flac
Size: 33273599 Hash: 676651ED971F497C51802BC7A14C47F6 Accuracy: -m0
Conclusion: CDDA 100%
Signature: 2180CEE5D3BA496718C6225F019549BDB69F44DD
FILE: 02. Hole In My Heart.flac
Size: 27874717 Hash: C3E12D97DD4D4D420BA10F23FADEFCF2 Accuracy: -m0
Conclusion: CDDA 100%
Signature: 9BEDF1E8B150F9322B826A0929B10E133B0E0D60
FILE: 01. Look In Her Eyes.flac
Size: 31871171 Hash: EE91C270526108B405F659CADA83BBFF Accuracy: -m0
Conclusion: CDDA 100%
Signature: 368AFFD8F423E4002F7D14223E2AF9482C0E2E71
Вверх