• Для скачивания альбомов c Облако Mail.Ru и Яндекс.Диск на нашем сайте необходимо зарегистрироваться.
  • Заказать необходимый альбом Вы можете в нашем специальном разделе "Стол заказов ".
Roberto Alagna, Aleksandra Kurzak - Puccini in Love (2018) [WEB / FLAC / lossless]

Roberto Alagna, Aleksandra Kurzak - Puccini in Love (2018) [WEB / FLAC / lossless]

нет прав для скачивания с cloud.mail.ru

Исполнитель: Roberto Alagna, Aleksandra Kurzak
Альбом: Puccini in Love
Носитель: WEB альбом
Дата выпуска: 2018
Жанр: Classical
Формат: FLAC (tracks)
Битрейт: 605-760 kbps
Продолжительность: 01:04:51
Скачать: filehost | turbobit | dfiles | douploads
Пароль на архив: grandorchestra

Треклист:
01. Tosca, Atto I Mario! - Son qui! [00:12:16]
02.
La Bohème Atto I O soave fanciulla [00:03:46]
03.
Manon Lescaut, Atto I Vedete Io son fedele [00:05:16]
04.
Il Tabarro È bel altro il mio sogno [00:03:55]
05.
Manon Lescaut, Atto II Tu, tu, amore Tu [00:07:50]
06.
La Rondine, Atto II Paulette! [00:02:14]
07.
La Fanciulla del West, Atto II Minnie che dolce nome [00:03:58]
08.
Il Tabarro Dimmi perché gli hai chiesto [00:04:58]
09.
La Rondine, Atto III Nella tua casa [00:06:11]
10.
Madama Butterfly, Atto I Viene la sera [00:14:24]

foobar2000 1.3.9 / Замер динамического диапазона (DR) 1.1.1
Дата отчёта: 2018-10-31 06:39:00

--------------------------------------------------------------------------------
Анализ: Roberto Alagna, Aleksandra Kurzak / Puccini in Love
--------------------------------------------------------------------------------

DR Пики RMS Продолжительность трека
--------------------------------------------------------------------------------
DR14 -0.30 дБ -20.50 дБ 12:16 01-Tosca, Atto I Mario! - Son qui!
DR14 -0.30 дБ -20.62 дБ 3:46 02-La Bohème Atto I O soave fanciulla
DR12 -0.30 дБ -18.29 дБ 5:16 03-Manon Lescaut, Atto I Vedete Io son fedele
DR12 -0.31 дБ -18.10 дБ 3:55 04-Il Tabarro È bel altro il mio sogno
DR12 -0.30 дБ -17.04 дБ 7:50 05-Manon Lescaut, Atto II Tu, tu, amore Tu
DR13 -4.05 дБ -22.71 дБ 2:15 06-La Rondine, Atto II Paulette!
DR10 -0.30 дБ -14.56 дБ 3:58 07-La Fanciulla del West, Atto II Minnie che dolce nome
DR12 -0.30 дБ -17.81 дБ 4:58 08-Il Tabarro Dimmi perché gli hai chiesto
DR13 -0.32 дБ -19.60 дБ 6:11 09-La Rondine, Atto III Nella tua casa
DR13 -0.31 дБ -18.34 дБ 14:25 10-Madama Butterfly, Atto I Viene la sera
--------------------------------------------------------------------------------

Количество треков: 10
Реальные значения DR: DR13

Частота: 44100 Гц
Каналов: 2
Разрядность: 16
Битрейт: 652 кбит/с
Кодек: FLAC
================================================================================
-----------------------

DON'T MODIFY THIS FILE

-----------------------

PERFORMER: auCDtect Task Manager, ver. 1.6.0 RC1 build 1.6.0.1
Copyright (c) 2008-2010 y-soft. All rights reserved
http://y-soft.org

ANALYZER: auCDtect: CD records authenticity detector, version 0.8.2
Copyright (c) 2004 Oleg Berngardt. All rights reserved.
Copyright (c) 2004 Alexander Djourik. All rights reserved.


FILE: 10. Madama Butterfly, Atto I Viene La Sera.flac
Size: 70725749 Hash: 18E646D1BC800C6F99A6A3626048BFB6 Accuracy: -m0
Conclusion: MPEG 100%
Signature: D29ED6D5269661E39AB94624E3A7BEACC45DCF2A
FILE: 09. La Rondine, Atto Iii Nella Tua Casa.flac
Size: 29989343 Hash: A5860682B84E935A6E5092382C431353 Accuracy: -m0
Conclusion: MPEG 100%
Signature: B1BF17F2C97A1B0A696C6D7DB2A622AD686A195C
FILE: 08. Il Tabarro Dimmi Perché Gli Hai Chiesto.flac
Size: 24714583 Hash: 34A5A25600625728ED85C7CF661E090B Accuracy: -m0
Conclusion: CDDA 62%
Signature: 203CBB85C1A40D9AEDCF764F44E4BFBE6CF24E96
FILE: 07. La Fanciulla Del West, Atto Ii Minnie Che Dolce Nome.flac
Size: 22670201 Hash: 1A3B6039575253AB6E4188E4012C9AAF Accuracy: -m0
Conclusion: CDDA 100%
Signature: 66A17FDC24E6E5D3ABAF4FCB1367A645C3BAB327
FILE: 06. La Rondine, Atto Ii Paulette!.flac
Size: 10609031 Hash: 4682639644009D5D7D6269877C798DBB Accuracy: -m0
Conclusion: MPEG 92%
Signature: 28AFFE3581090FCF203177100452FE47DCF40848
FILE: 05. Manon Lescaut, Atto Ii Tu, Tu, Amore Tu.flac
Size: 40258513 Hash: 3A13E1C63E3C20648B905E7EF9142510 Accuracy: -m0
Conclusion: CDDA 58%
Signature: 63CB5A863953F0EE96ACCAFED49E8F8BF35BDC38
FILE: 04. Il Tabarro È Bel Altro Il Mio Sogno.flac
Size: 19852901 Hash: 78DC507490DE97622CF77AA65B65D479 Accuracy: -m0
Conclusion: CDDA 42%
Signature: EF29F02B11E98DC522709D062762B7D906837E20
FILE: 03. Manon Lescaut, Atto I Vedete Io Son Fedele.flac
Size: 26585439 Hash: 5723F9C657FFF0BE3F3756D1A704667B Accuracy: -m0
Conclusion: CDDA 43%
Signature: 6C71EED45B74C062EDA22F965AAD53D86852486D
FILE: 02. La Bohème Atto I O Soave Fanciulla.flac
Size: 17364019 Hash: F1E4E737AD2E623042EEB53E9B0516C6 Accuracy: -m0
Conclusion: MPEG 93%
Signature: 3A94E97CB68D6A36D0B91E2CBBA27767014F61C4
FILE: 01. Tosca, Atto I Mario! - Son Qui!.flac
Size: 57893530 Hash: A969C9D5FB7AF76DAF45F77DB5ADBF32 Accuracy: -m0
Conclusion: MPEG 90%
Signature: CCB917561439B8853AC39BF95254D664D8C6E391
Вверх