• Для скачивания альбомов c Облако Mail.Ru и Яндекс.Диск на нашем сайте необходимо зарегистрироваться.
  • Заказать необходимый альбом Вы можете в нашем специальном разделе "Стол заказов ".
Robert Prizeman, Libera & Project Instrumental - Beyond (2018) [WEB / FLAC / lossless]

Robert Prizeman, Libera & Project Instrumental - Beyond (2018) [WEB / FLAC / lossless]

нет прав для скачивания с cloud.mail.ru

Исполнитель: Robert Prizeman, Libera & Project Instrumental
Альбом: Beyond
Носитель: WEB альбом
Дата выпуска: 2018
Жанр: Neoclassical
Формат: FLAC (tracks)
Битрейт: 601-755 kbps
Продолжительность: 00:41:59
Пароль на архив: grandorchestra

Треклист:
01. Ave Maria (Arr. by Giulio Romano Caccini) [00:04:26]
02.
In Paradisum [00:03:29]
03.
Salve Regina (based on 'Impromptu No. 3 in G-Flat, D. 899' by Franz Schubert) [00:04:33]
04.
Sanctus (based on 'Canon in D Major, P. 37' by Johann Pachelbel) [00:03:28]
05.
Ave Maria [00:04:46]
06.
Lacrymosa (based on ‘VII. Aquarium' from 'Le carnaval des animaux, R. 125'’ by Camille Saint-Saëns) [00:03:18]
07.
Voca Me [00:04:28]
08.
The Prayer [00:04:39]
09.
Do Not Stand At My Grave And Weep [00:02:40]
10.
Benedictus Deus (Extended song from ‘The Greatest Miracle’) [00:03:27]
11.
Mother Of God [00:02:40]

foobar2000 1.3.9 / Замер динамического диапазона (DR) 1.1.1
Дата отчёта: 2018-10-16 19:02:48

--------------------------------------------------------------------------------
Анализ: Giulio Romano Caccini, Libera & Project Instrumental / Beyond (1)
John Tavener, Libera & Project Instrumental / Beyond (2)
Robert Prizeman, Libera & Project Instrumental / Beyond (3-11)
--------------------------------------------------------------------------------

DR Пики RMS Продолжительность трека
--------------------------------------------------------------------------------
DR9 -1.34 дБ -13.41 дБ 4:26 01-Ave Maria (Arr. by Giulio Romano Caccini)
DR12 -1.27 дБ -17.39 дБ 2:40 11-Mother Of God
DR8 -0.08 дБ -12.98 дБ 3:30 02-In Paradisum
DR10 -0.22 дБ -14.79 дБ 4:34 03-Salve Regina (based on 'Impromptu No. 3 in G-Flat, D. 899' by Franz Schubert)
DR8 -0.42 дБ -12.34 дБ 3:29 04-Sanctus (based on 'Canon in D Major, P. 37' by Johann Pachelbel)
DR9 -0.22 дБ -13.13 дБ 4:46 05-Ave Maria
DR10 -0.40 дБ -13.86 дБ 3:19 06-Lacrymosa (based on ‘VII. Aquarium' from 'Le carnaval des animaux, R. 125'’ by Camille Saint-Saëns)
DR9 -0.08 дБ -14.29 дБ 4:29 07-Voca Me
DR8 -0.10 дБ -13.71 дБ 4:39 08-The Prayer
DR11 -0.60 дБ -16.32 дБ 2:41 09-Do Not Stand At My Grave And Weep
DR8 -0.10 дБ -11.39 дБ 3:27 10-Benedictus Deus (Extended song from ‘The Greatest Miracle’)
--------------------------------------------------------------------------------

Количество треков: 11
Реальные значения DR: DR9

Частота: 44100 Гц
Каналов: 2
Разрядность: 16
Битрейт: 748 кбит/с
Кодек: FLAC
================================================================================
-----------------------

DON'T MODIFY THIS FILE

-----------------------

PERFORMER: auCDtect Task Manager, ver. 1.6.0 RC1 build 1.6.0.1
Copyright (c) 2008-2010 y-soft. All rights reserved
http://y-soft.org

ANALYZER: auCDtect: CD records authenticity detector, version 0.8.2
Copyright (c) 2004 Oleg Berngardt. All rights reserved.
Copyright (c) 2004 Alexander Djourik. All rights reserved.


FILE: 11. Mother Of God.flac
Size: 12672984 Hash: 8FA4183B1CDB0092F19459BA95E1CA18 Accuracy: -m0
Conclusion: CDDA 100%
Signature: 51078B1ABE8D2A2DBF0D1498D4D13828A086B173
FILE: 10. Benedictus Deus (Extended song from ‘The Greatest Miracle’).flac
Size: 19501346 Hash: 59E93545B5475FE3354510AE768C2304 Accuracy: -m0
Conclusion: CDDA 100%
Signature: ED416C09004CF52E457A4EBAD7DF6BD0E30E535F
FILE: 09. Do Not Stand At My Grave And Weep.flac
Size: 12185679 Hash: 2A5F6C46AAAE23FBB231E5FB7B20652E Accuracy: -m0
Conclusion: CDDA 100%
Signature: 45B2747CE907916C31DBDE52C27FD2ECD3A6E273
FILE: 08. The Prayer.flac
Size: 24014948 Hash: E1CE44FC1EC6F440BEA09DF29668CD37 Accuracy: -m0
Conclusion: CDDA 100%
Signature: D56347E281D24E3C513845AC6F0BC045338FA774
FILE: 07. Voca Me.flac
Size: 22756209 Hash: 770C23E1678D2FD76C2B53A231C65705 Accuracy: -m0
Conclusion: CDDA 100%
Signature: D06B2D6174A5F1B8EE63607CEBDC08FAE6DD2BFF
FILE: 06. Lacrymosa (based on ‘VII. Aquarium' from 'Le carnaval des animaux, R. 125'’ by Camille Saint-Saëns).flac
Size: 18127391 Hash: 2E714A2FFFB361B27A0874D15967520D Accuracy: -m0
Conclusion: CDDA 100%
Signature: DCFF7BF18C002A9A4E415FBA87E67B1336541C88
FILE: 05. Ave Maria.flac
Size: 24717735 Hash: FB88245F09B14FBECE334D2B2116BAF7 Accuracy: -m0
Conclusion: CDDA 100%
Signature: 9EE02B35E0A6CB8153F56F4E26880EF53624858A
FILE: 04. Sanctus (based on 'Canon in D Major, P. 37' by Johann Pachelbel).flac
Size: 19791564 Hash: 2286DA8A7D532A0D49E7B5886AF8B1CA Accuracy: -m0
Conclusion: CDDA 100%
Signature: BE81A9A77C8449DA0B3A503970CA011E2054AAD4
FILE: 03. Salve Regina (based on 'Impromptu No. 3 in G-Flat, D. 899' by Franz Schubert).flac
Size: 23290316 Hash: FE4447055B1D081547DB0ED5D887CB2F Accuracy: -m0
Conclusion: CDDA 100%
Signature: DC9E10513ECE4C4A00B2D88F499E52EC1904EB52
FILE: 02. In Paradisum.flac
Size: 17993006 Hash: 10920EED2FC495AC0BF61CECDA044CAF Accuracy: -m0
Conclusion: CDDA 100%
Signature: 96F9E262E1234F99AD5A3E670E4D618C8D826B24
FILE: 01. Ave Maria (Arr. by Giulio Romano Caccini).flac
Size: 22661484 Hash: 3EA542C57BA12E40139EC3830E6088F0 Accuracy: -m0
Conclusion: CDDA 100%
Signature: 5F044255FD951B620ED7A0EEE998CD819F239C9D
Вверх