• Для скачивания альбомов c Облако Mail.Ru и Яндекс.Диск на нашем сайте необходимо зарегистрироваться.
  • Заказать необходимый альбом Вы можете в нашем специальном разделе "Стол заказов ".
Rick Wakeman - Piano Odyssey (2018-10-12) [WEB / FLAC / lossless]

Rick Wakeman - Piano Odyssey (2018-10-12) [WEB / FLAC / lossless]

нет прав для скачивания с cloud.mail.ru

Исполнитель: Rick Wakeman
Альбом: Piano Odyssey
Носитель: WEB альбом
Дата выпуска: 2018-10-12
Жанр: New Age
Формат: FLAC (tracks)
Битрейт: 515-658 kbps
Продолжительность: 00:54:59
Пароль на архив: grandorchestra

Треклист:
01. While My Guitar Gently Weeps (Arranged for Piano, Strings & Chorus by Rick Wakeman) [00:04:06]
02.
Liebesträume / After The Ball (Arranged for Piano, Strings & Chorus by Rick Wakeman) [00:05:40]
03.
And You & I (Arranged for Piano, Strings & Chorus by Rick Wakeman) [00:04:33]
04.
Rocky (The Legacy) [00:06:25]
05.
The Boxer (Arranged for Piano, Strings & Chorus by Rick Wakeman) [00:05:14]
06.
The Wild Eyed Boy From Freecloud (Arranged for Piano, Strings & Chorus by Rick Wakeman) [00:04:55]
07.
Strawberry Fields Forever (Arranged for Piano, Strings & Chorus by Rick Wakeman) [00:02:52]
08.
Roundabout (Arranged for Piano, Strings & Chorus by Rick Wakeman) [00:03:17]
09.
Cyril Wolverine [00:05:18]
10.
Jane Seymour [00:03:41]
11.
Largos (Arranged for Piano, Strings & Chorus by Rick Wakeman) [00:03:16]
12.
Bohemian Rhapsody (Arranged for Piano, Strings & Chorus by Rick Wakeman) [00:05:36]

foobar2000 1.3.9 / Замер динамического диапазона (DR) 1.1.1
Дата отчёта: 2018-10-13 12:06:30

--------------------------------------------------------------------------------
Анализ: Rick Wakeman / Piano Odyssey
--------------------------------------------------------------------------------

DR Пики RMS Продолжительность трека
--------------------------------------------------------------------------------
DR12 -1.31 дБ -15.71 дБ 4:07 01-While My Guitar Gently Weeps (Arranged for Piano, Strings & Chorus by Rick Wakeman)
DR11 -1.33 дБ -17.06 дБ 5:41 02-Liebesträume / After The Ball (Arranged for Piano, Strings & Chorus by Rick Wakeman)
DR12 -1.00 дБ -16.13 дБ 4:34 03-And You & I (Arranged for Piano, Strings & Chorus by Rick Wakeman)
DR12 -1.02 дБ -16.38 дБ 6:25 04-Rocky (The Legacy)
DR12 -1.43 дБ -16.12 дБ 5:14 05-The Boxer (Arranged for Piano, Strings & Chorus by Rick Wakeman)
DR12 -0.27 дБ -16.10 дБ 4:55 06-The Wild Eyed Boy From Freecloud (Arranged for Piano, Strings & Chorus by Rick Wakeman)
DR12 -0.32 дБ -16.85 дБ 2:53 07-Strawberry Fields Forever (Arranged for Piano, Strings & Chorus by Rick Wakeman)
DR10 -1.14 дБ -13.87 дБ 3:17 08-Roundabout (Arranged for Piano, Strings & Chorus by Rick Wakeman)
DR13 -1.90 дБ -18.87 дБ 5:19 09-Cyril Wolverine
DR11 -1.17 дБ -14.59 дБ 3:41 10-Jane Seymour
DR12 -2.13 дБ -17.12 дБ 3:17 11-Largos (Arranged for Piano, Strings & Chorus by Rick Wakeman)
DR11 -0.24 дБ -13.88 дБ 5:37 12-Bohemian Rhapsody (Arranged for Piano, Strings & Chorus by Rick Wakeman)
--------------------------------------------------------------------------------

Количество треков: 12
Реальные значения DR: DR12

Частота: 44100 Гц
Каналов: 2
Разрядность: 16
Битрейт: 659 кбит/с
Кодек: FLAC
================================================================================
-----------------------

DON'T MODIFY THIS FILE

-----------------------

PERFORMER: auCDtect Task Manager, ver. 1.6.0 RC1 build 1.6.0.1
Copyright (c) 2008-2010 y-soft. All rights reserved
http://y-soft.org

ANALYZER: auCDtect: CD records authenticity detector, version 0.8.2
Copyright (c) 2004 Oleg Berngardt. All rights reserved.
Copyright (c) 2004 Alexander Djourik. All rights reserved.


FILE: 12. Bohemian Rhapsody (Arranged for Piano, Strings & Chorus by Rick Wakeman).flac
Size: 27994324 Hash: 00BEE6ADBE006EE9362A6332846954CF Accuracy: -m0
Conclusion: CDDA 94%
Signature: 6CB50228FCA75057DC7F8C13015ACAE47AE2610C
FILE: 11. Largos (Arranged for Piano, Strings & Chorus by Rick Wakeman).flac
Size: 13299568 Hash: AF436EBD23131B4B5D53D09AEA08D7AD Accuracy: -m0
Conclusion: MPEG 80%
Signature: 7C3CA3DC3F79FD97D85939C1FBDC8959FD335F73
FILE: 10. Jane Seymour.flac
Size: 17895704 Hash: F76C69FCAD42A866DD0F25268D16179B Accuracy: -m0
Conclusion: CDDA 86%
Signature: 4096D4945493C8C11EEFF2950C18AA2050405903
FILE: 09. Cyril Wolverine.flac
Size: 21562233 Hash: BED204CBD9505FE17696FA8608366B0B Accuracy: -m0
Conclusion: CDDA 62%
Signature: 2C6B298FE62F97FBAF820C0B666902BB7A997B1B
FILE: 08. Roundabout (Arranged for Piano, Strings & Chorus by Rick Wakeman).flac
Size: 16388288 Hash: 2FBFA2A3FF388296086B932D0A5C61F6 Accuracy: -m0
Conclusion: CDDA 87%
Signature: 185091FB875640E2EAEC36C1E6084632CA3997BE
FILE: 07. Strawberry Fields Forever (Arranged for Piano, Strings & Chorus by Rick Wakeman).flac
Size: 11392490 Hash: 5F4F263A0AFFB704390C30C513C4FC4A Accuracy: -m0
Conclusion: CDDA 43%
Signature: FF3B1A7680E536D41F3FFA1B5EE23AEFD025F9C2
FILE: 06. The Wild Eyed Boy From Freecloud (Arranged for Piano, Strings & Chorus by Rick Wakeman).flac
Size: 21380405 Hash: A325D29F102A5FAE65C9866B6D2DFB86 Accuracy: -m0
Conclusion: CDDA 43%
Signature: 3DE784C8096B4E91B66E8B3B8FBA239433825D50
FILE: 05. The Boxer (Arranged for Piano, Strings & Chorus by Rick Wakeman).flac
Size: 23028615 Hash: F20A418B1DEC63DA44CDE3057741CBE2 Accuracy: -m0
Conclusion: CDDA 43%
Signature: 713A6302854F727C45F2AC030470D427191EA226
FILE: 04. Rocky (The Legacy).flac
Size: 27778027 Hash: 34C20531C5CA679CDFAF78CC7E335F07 Accuracy: -m0
Conclusion: CDDA 43%
Signature: 35F6AE3B4FD96E74E4E4FE78CA89BFD15913D6DE
FILE: 03. And You & I (Arranged for Piano, Strings & Chorus by Rick Wakeman).flac
Size: 19638255 Hash: 5DDEB67875F31BA1C3B8059F36C27958 Accuracy: -m0
Conclusion: CDDA 85%
Signature: 09169CFC02BE5EED93C3BF9BA0B5A8A27C9FB818
FILE: 02. Liebesträume After The Ball (Arranged for Piano, Strings & Chorus by Rick Wakeman).flac
Size: 22455940 Hash: 448362EF4AE95F899577095AB68B4F67 Accuracy: -m0
Conclusion: CDDA 43%
Signature: 74C0AC744778FCE310B0BA86036CAB32932DBD7C
FILE: 01. While My Guitar Gently Weeps (Arranged for Piano, Strings & Chorus by Rick Wakeman).flac
Size: 17839517 Hash: 5C37D18EC7158567620EC9617D11093D Accuracy: -m0
Conclusion: CDDA 49%
Signature: 8ABB7E6B66C7B336115ACBD445567E35C2933855

Последние отзывы

Похоже что Рик Уэйкман полностью перешел на фортепьяно :)
Вверх