• Для скачивания альбомов c Облако Mail.Ru и Яндекс.Диск на нашем сайте необходимо зарегистрироваться.
  • Заказать необходимый альбом Вы можете в нашем специальном разделе "Стол заказов ".
Rick Sparks - Endless (2014) [WEB / FLAC / lossless]

Rick Sparks - Endless (2014) [WEB / FLAC / lossless]

нет прав для скачивания с cloud.mail.ru
  • Автор rdf
  • Дата создания
  • Рекомендуемый

Исполнитель: Rick Sparks
Альбом: Endless
Носитель: WEB альбом
Дата выпуска: 2014
Жанр: New Age
Формат: FLAC (tracks)
Битрейт: 340-785 kbps
Продолжительность: 00:41:15
Скачать: filehost | turbobit | dfiles | douploads
Пароль на архив: grandorchestra

Треклист:
01. Beautiful [00:04:27]
02.
Dream Angus [00:04:22]
03.
Endless [00:03:39]
04.
Be Thou My Vision [00:03:40]
05.
Portree [00:04:25]
06.
Wexford Carol [00:05:01]
07.
Wonderful, Merciful Savior [00:04:17]
08.
At Rest [00:03:35]
09.
Loch Lomond [00:04:07]
10.
Be Still, My Soul [00:03:38]

foobar2000 1.3.9 / Замер динамического диапазона (DR) 1.1.1
Дата отчёта: 2018-10-29 21:26:49

--------------------------------------------------------------------------------
Анализ: Rick Sparks / Endless
--------------------------------------------------------------------------------

DR Пики RMS Продолжительность трека
--------------------------------------------------------------------------------
DR11 -1.18 дБ -15.12 дБ 4:27 01-Beautiful
DR10 -0.18 дБ -13.62 дБ 4:23 02-Dream Angus
DR11 -0.18 дБ -13.65 дБ 3:39 03-Endless
DR11 -0.18 дБ -14.61 дБ 3:41 04-Be Thou My Vision
DR10 -2.68 дБ -15.70 дБ 4:25 05-Portree
DR10 -1.18 дБ -14.97 дБ 5:02 06-Wexford Carol
DR10 -2.18 дБ -16.15 дБ 4:17 07-Wonderful, Merciful Savior
DR12 -1.18 дБ -17.01 дБ 3:35 08-At Rest
DR10 -1.18 дБ -14.87 дБ 4:08 09-Loch Lomond
DR12 0.00 дБ -15.01 дБ 3:38 10-Be Still, My Soul
--------------------------------------------------------------------------------

Количество треков: 10
Реальные значения DR: DR11

Частота: 44100 Гц
Каналов: 2
Разрядность: 16
Битрейт: 341 кбит/с
Кодек: FLAC
================================================================================
-----------------------

DON'T MODIFY THIS FILE

-----------------------

PERFORMER: auCDtect Task Manager, ver. 1.6.0 RC1 build 1.6.0.1
Copyright (c) 2008-2010 y-soft. All rights reserved
http://y-soft.org

ANALYZER: auCDtect: CD records authenticity detector, version 0.8.2
Copyright (c) 2004 Oleg Berngardt. All rights reserved.
Copyright (c) 2004 Alexander Djourik. All rights reserved.


FILE: 10. Be Still, My Soul.flac
Size: 9316851 Hash: EC5B57CF22222B7F474E8208F2B679BA Accuracy: -m0
Conclusion: MPEG 100%
Signature: BF67158CA238B8B808FB810C87F448A16E0A14E9
FILE: 09. Loch Lomond.flac
Size: 18553139 Hash: F41F0E89AE522DB035B8B81A78B2A8B5 Accuracy: -m0
Conclusion: CDDA 42%
Signature: 4014AB5EE3A22066B26366132F5F2103B74E654B
FILE: 08. At Rest.flac
Size: 10318009 Hash: 06D361596F4F924F4AC5977DC037058C Accuracy: -m0
Conclusion: CDDA 94%
Signature: D66FC45DAE49EFBBF7B143D911237769641329AE
FILE: 07. Wonderful, Merciful Savior.flac
Size: 17009922 Hash: 41B0D0CD39BB706352B0763917173ECF Accuracy: -m0
Conclusion: MPEG 100%
Signature: F4B64BE8527BE7544AFFB4AE3CCE3FC4E70EA68F
FILE: 06. Wexford Carol.flac
Size: 23022006 Hash: B388461554F620399847AC3BBD316C3E Accuracy: -m0
Conclusion: CDDA 100%
Signature: 0BCAE4843C59F1F5328A2B74D404B049B5F1565F
FILE: 05. Portree.flac
Size: 16742838 Hash: BEBD31E67D45120856982D1B9A536555 Accuracy: -m0
Conclusion: MPEG 90%
Signature: 946B3D827AF5DA6FB599DF577972AC4ED40DA388
FILE: 04. Be Thou My Vision.flac
Size: 17469520 Hash: 3076C0D87F900C19CB8AF427B6924727 Accuracy: -m0
Conclusion: CDDA 62%
Signature: 0A25EC71C2C061CB8D2A1AF1C08BB21D7F7BDC92
FILE: 03. Endless.flac
Size: 16963802 Hash: 4D45CA8FB7B56985D1A3676085820E35 Accuracy: -m0
Conclusion: CDDA 85%
Signature: 8AB786CAED3CD30F7980F1758F6389376244D2A8
FILE: 02. Dream Angus.flac
Size: 19361543 Hash: A5FD8673F37DAA0962939C754E46C2B2 Accuracy: -m0
Conclusion: MPEG 93%
Signature: 9F5829792E017A28472DAF1A86D9B54C05887F99
FILE: 01. Beautiful.flac
Size: 26505206 Hash: 896B1230C8B064FAFEBFD796B2AA17FC Accuracy: -m0
Conclusion: CDDA 100%
Signature: 1E87B240B7E18DFF5534CCDB3394A34969A835AD
Вверх