• Для скачивания альбомов c Облако Mail.Ru и Яндекс.Диск на нашем сайте необходимо зарегистрироваться.
  • Заказать необходимый альбом Вы можете в нашем специальном разделе "Стол заказов ".
Richard Ashcroft - Natural Rebel (2018) [WEB / FLAC / lossless]

Richard Ashcroft - Natural Rebel (2018) [WEB / FLAC / lossless]

нет прав для скачивания с cloud.mail.ru

Исполнитель: Richard Ashcroft
Альбом: Natural Rebel
Носитель: WEB альбом
Дата выпуска: 2018
Жанр: Alternative
Формат: FLAC (tracks)
Битрейт: 841-1019 kbps
Продолжительность: 00:46:27
Скачать: filehost | turbobit | dfiles
Пароль на архив: grandorchestra

Треклист:
01. All My Dreams [00:04:27]
02.
Birds Fly [00:03:57]
03.
Surprised by the Joy [00:05:37]
04.
That's How Strong [00:04:44]
05.
Born to Be Strangers [00:04:13]
06.
That's When I Feel It [00:04:02]
07.
We All Bleed [00:03:58]
08.
A Man in Motion [00:05:03]
09.
Streets of Amsterdam [00:05:20]
10.
Money Money [00:05:02]

foobar2000 1.3.9 / Замер динамического диапазона (DR) 1.1.1
Дата отчёта: 2018-10-21 21:56:15

--------------------------------------------------------------------------------
Анализ: Richard Ashcroft / Natural Rebel
--------------------------------------------------------------------------------

DR Пики RMS Продолжительность трека
--------------------------------------------------------------------------------
DR6 -0.01 дБ -8.09 дБ 3:59 07-We All Bleed
DR6 -0.02 дБ -7.37 дБ 4:28 01-All My Dreams
DR8 -0.02 дБ -8.81 дБ 3:57 02-Birds Fly
DR7 -0.02 дБ -7.72 дБ 5:38 03-Surprised by the Joy
DR6 -0.02 дБ -7.74 дБ 4:44 04-That's How Strong
DR6 -0.02 дБ -7.77 дБ 4:13 05-Born to Be Strangers
DR6 -0.01 дБ -6.75 дБ 4:03 06-That's When I Feel It
DR7 -0.02 дБ -8.21 дБ 5:03 08-A Man in Motion
DR6 -0.02 дБ -8.07 дБ 5:20 09-Streets of Amsterdam
DR5 -0.01 дБ -6.14 дБ 5:03 10-Money Money
--------------------------------------------------------------------------------

Количество треков: 10
Реальные значения DR: DR6

Частота: 44100 Гц
Каналов: 2
Разрядность: 16
Битрейт: 1020 кбит/с
Кодек: FLAC
================================================================================
-----------------------

DON'T MODIFY THIS FILE

-----------------------

PERFORMER: auCDtect Task Manager, ver. 1.6.0 RC1 build 1.6.0.1
Copyright (c) 2008-2010 y-soft. All rights reserved
http://y-soft.org

ANALYZER: auCDtect: CD records authenticity detector, version 0.8.2
Copyright (c) 2004 Oleg Berngardt. All rights reserved.
Copyright (c) 2004 Alexander Djourik. All rights reserved.


FILE: 10. Money Money.flac
Size: 38872343 Hash: 7B1A841007726C5246AAC5712E54E0A2 Accuracy: -m0
Conclusion: CDDA 100%
Signature: 6DE50012042EA28553941FC359DA4DF290DF81B5
FILE: 09. Streets Of Amsterdam.flac
Size: 38081493 Hash: 22B2485256CC7F2F67C9C78628B0CAA4 Accuracy: -m0
Conclusion: CDDA 100%
Signature: 52611F247E243BB1F138CB6D64B1D7176570B04C
FILE: 08. A Man In Motion.flac
Size: 38159904 Hash: D41BF1707B1FE5BB0F2C7C704B8AE3A8 Accuracy: -m0
Conclusion: MPEG 95%
Signature: 158D60EE8B5A7F3322A259F8C8D455AD125E296D
FILE: 07. We All Bleed.flac
Size: 25122774 Hash: 1A2050C768E66B99EEDFF5EB76A75C75 Accuracy: -m0
Conclusion: CDDA 100%
Signature: BEDE7BE17296163F2192312B3BCBC98089B3219F
FILE: 06. That's When I Feel It.flac
Size: 31006771 Hash: 13EE52280EE6956DA8FE332A4A19E875 Accuracy: -m0
Conclusion: CDDA 100%
Signature: C49A5BB3489141F01A71724F5C82CEC16B409183
FILE: 05. Born To Be Strangers.flac
Size: 29983271 Hash: EAA83DEFD7327FCEE935386781353991 Accuracy: -m0
Conclusion: CDDA 99%
Signature: 764639E3F9023E86359EF002A69CD77643060627
FILE: 04. That's How Strong.flac
Size: 34293695 Hash: C227F6FFFD4073335B0B700115A8E768 Accuracy: -m0
Conclusion: CDDA 100%
Signature: F01C8D64FB2A12BD346A767966DCF751F2A60E0B
FILE: 03. Surprised By The Joy.flac
Size: 40965480 Hash: E8ADB69AEE409C96AE401D0AC24C03B7 Accuracy: -m0
Conclusion: CDDA 99%
Signature: 99FFAFDFEEF07589229E635DD00537523DA78C06
FILE: 02. Birds Fly.flac
Size: 28540534 Hash: 9A0EAB928883A4A37108A7CD6749D21C Accuracy: -m0
Conclusion: CDDA 100%
Signature: F22A2361F5EACDB2309C3516AADDD740280724A4
FILE: 01. All My Dreams.flac
Size: 31841163 Hash: 201E2CC8655DC54EF86FEF0E0778D5DE Accuracy: -m0
Conclusion: MPEG 95%
Signature: 61B3F94060037DC6AF4C07A37DF31332F0CF30EF
Вверх