• Для скачивания альбомов c Облако Mail.Ru и Яндекс.Диск на нашем сайте необходимо зарегистрироваться.
  • Заказать необходимый альбом Вы можете в нашем специальном разделе "Стол заказов ".
Quinn - From Where the Beauty Hides (2018) [WEB / FLAC / lossless]

Quinn - From Where the Beauty Hides (2018) [WEB / FLAC / lossless]

нет прав для скачивания с cloud.mail.ru
  • Автор rdf
  • Дата создания
  • Рекомендуемый

Исполнитель: Quinn
Альбом: From Where the Beauty Hides
Носитель: WEB альбом
Дата выпуска: 2018-10-20
Жанр: New Age
Формат: FLAC (tracks)
Битрейт: 398-726 kbps
Продолжительность: 00:33:42
Скачать: filehost | turbobit | dfiles | douploads
Пароль на архив: grandorchestra

Треклист:
01. Are You Sleeping, Unaware? [00:03:30]
02.
Fallen Petals [00:04:07]
03.
I’ll Be Lying Next to You [00:03:55]
04.
Invisible Mending [00:03:38]
05.
Latent Luminescence [00:02:24]
06.
Softening the Edges [00:03:32]
07.
The Magicalarium [00:03:15]
08.
The Maiden of Lost Love [00:02:49]
09.
Upon Reflection [00:03:23]
10.
Variant Shadows [00:03:06]

foobar2000 1.3.9 / Замер динамического диапазона (DR) 1.1.1
Дата отчёта: 2018-10-28 13:22:37

--------------------------------------------------------------------------------
Анализ: Quinn / From Where the Beauty Hides
--------------------------------------------------------------------------------

DR Пики RMS Продолжительность трека
--------------------------------------------------------------------------------
DR11 -4.68 дБ -17.66 дБ 3:31 01-Are You Sleeping, Unaware?
DR12 -4.49 дБ -18.22 дБ 4:07 02-Fallen Petals
DR11 -3.52 дБ -18.04 дБ 3:55 03-I’ll Be Lying Next to You
DR12 -2.92 дБ -17.22 дБ 3:38 04-Invisible Mending
DR12 -2.80 дБ -17.63 дБ 2:24 05-Latent Luminescence
DR10 -5.08 дБ -17.19 дБ 3:33 06-Softening the Edges
DR9 -5.00 дБ -16.12 дБ 3:16 07-The Magicalarium
DR9 -5.49 дБ -17.23 дБ 2:49 08-The Maiden of Lost Love
DR11 -3.90 дБ -16.43 дБ 3:24 09-Upon Reflection
DR11 -4.48 дБ -17.33 дБ 3:06 10-Variant Shadows
--------------------------------------------------------------------------------

Количество треков: 10
Реальные значения DR: DR11

Частота: 44100 Гц
Каналов: 2
Разрядность: 16
Битрейт: 494 кбит/с
Кодек: FLAC
================================================================================
-----------------------

DON'T MODIFY THIS FILE

-----------------------

PERFORMER: auCDtect Task Manager, ver. 1.6.0 RC1 build 1.6.0.1
Copyright (c) 2008-2010 y-soft. All rights reserved
http://y-soft.org

ANALYZER: auCDtect: CD records authenticity detector, version 0.8.2
Copyright (c) 2004 Oleg Berngardt. All rights reserved.
Copyright (c) 2004 Alexander Djourik. All rights reserved.


FILE: 10. Variant Shadows.flac
Size: 11875472 Hash: ED864D78FCECC926C473D4B58CEA8929 Accuracy: -m0
Conclusion: MPEG 89%
Signature: 2776C53E291E60C126D705096C43E11410CD1893
FILE: 09. Upon Reflection.flac
Size: 10518668 Hash: F02CDBB6FF649A56600242D8248A1890 Accuracy: -m0
Conclusion: MPEG 100%
Signature: 2A0BE3EDC9CCBFD8F91AC562C14E4FDA7688F995
FILE: 08. The Maiden of Lost Love.flac
Size: 10842441 Hash: 4517F38EE2BC9ABE981706A692BFF279 Accuracy: -m0
Conclusion: CDDA 100%
Signature: 40919EA58EAEC35AE5FB511944FE330857BE99DC
FILE: 07. The Magicalarium.flac
Size: 18132118 Hash: A535475164F8643D8F6B5BEFB2C0F35B Accuracy: -m0
Conclusion: CDDA 100%
Signature: 75E9023CDAA1DD8EBAE1CF89FF27F44F54DFA77B
FILE: 06. Softening the Edges.flac
Size: 14035709 Hash: 3394EE19818D6A3D6AF3EA2FC6A6B3B8 Accuracy: -m0
Conclusion: CDDA 87%
Signature: C08D561BFFF533132EF7A06000838B87FFCCAB70
FILE: 05. Latent Luminescence.flac
Size: 8583357 Hash: 8F2D37FCA6C14C29F2696DD4F5BBEFDD Accuracy: -m0
Conclusion: CDDA 100%
Signature: B202E881DDFC395A57AA7DA6E80C4104104A6BF4
FILE: 04. Invisible Mending.flac
Size: 13837792 Hash: 045A7B757D02AB9D230D5D44DD438641 Accuracy: -m0
Conclusion: CDDA 54%
Signature: FBCA72FD920508360B25D1C7DDD5750FA15CE7F4
FILE: 03. I’ll Be Lying Next to You.flac
Size: 12123814 Hash: 9DEE15F6CC9C336DC7869A7DDCCC3A82 Accuracy: -m0
Conclusion: CDDA 43%
Signature: 840064D94592D330C30F43C36FFD04FB32E470C5
FILE: 02. Fallen Petals.flac
Size: 16911922 Hash: 2779BB132AD414039301F82A37896EAF Accuracy: -m0
Conclusion: CDDA 87%
Signature: 9E7E924CDA156447830A9013F01DC28027DDA177
FILE: 01. Are You Sleeping, Unaware.flac
Size: 11141495 Hash: 46BB05C3BF30E5D9C8781B3B33E2486C Accuracy: -m0
Conclusion: MPEG 93%
Signature: 3684BF61CD7B5E48675CF75F20E6EF025BC14F50
Вверх