• Для скачивания альбомов c Облако Mail.Ru и Яндекс.Диск на нашем сайте необходимо зарегистрироваться.
  • Заказать необходимый альбом Вы можете в нашем специальном разделе "Стол заказов ".
Plácido Domingo & Pablo Sainz Villegas - Volver (2018-10-12) [WEB / FLAC / lossless]

Plácido Domingo & Pablo Sainz Villegas - Volver (2018-10-12) [WEB / FLAC / lossless]

нет прав для скачивания с cloud.mail.ru
  • Автор rdf
  • Дата создания
  • Рекомендуемый

Исполнитель: Plácido Domingo & Pablo Sainz Villegas
Альбом: Volver
Носитель: WEB альбом
Дата выпуска: 2018-10-12
Жанр: Classical
Формат: FLAC (tracks)
Битрейт: 725-884 kbps
Продолжительность: 00:45:37
Пароль на архив: grandorchestra

Треклист:
01. Sabor A Mí [00:03:11]
02.
Nunca [00:03:26]
03.
Valeria's Bossa [00:03:34]
04.
Coimbra [00:02:45]
05.
Adios Granada [00:04:30]
06.
Una Limosna Por El Amor de Dios [00:04:30]
07.
Dos Cruces [00:05:03]
08.
La Morena De Mi Copla [00:03:09]
09.
Guajira Guantanamera [00:02:55]
10.
Historia De Un Amor [00:04:08]
11.
Gracias A La Vida [00:04:26]
12.
Volver [00:03:55]

foobar2000 1.3.9 / Замер динамического диапазона (DR) 1.1.1
Дата отчёта: 2018-10-14 20:21:30

--------------------------------------------------------------------------------
Анализ: Pablo Sainz Villegas / Volver (1-3)
Plácido Domingo, Pablo Sainz Villegas / Volver (4-12)
--------------------------------------------------------------------------------

DR Пики RMS Продолжительность трека
--------------------------------------------------------------------------------
DR8 -0.02 дБ -10.29 дБ 3:34 03-Valeria's Bossa
DR8 -0.02 дБ -10.74 дБ 4:30 06-Una Limosna Por El Amor de Dios
DR9 -0.02 дБ -11.24 дБ 2:55 09-Guajira Guantanamera
DR8 -0.02 дБ -10.38 дБ 3:12 01-Sabor A Mí
DR8 -0.02 дБ -10.43 дБ 3:27 02-Nunca
DR9 -0.02 дБ -10.90 дБ 2:46 04-Coimbra
DR6 -0.02 дБ -9.08 дБ 4:31 05-Adios Granada
DR8 -0.02 дБ -11.29 дБ 5:03 07-Dos Cruces
DR7 -0.02 дБ -9.58 дБ 3:10 08-La Morena De Mi Copla
DR8 -0.05 дБ -10.39 дБ 4:08 10-Historia De Un Amor
DR11 -0.02 дБ -14.52 дБ 4:26 11-Gracias A La Vida
DR8 -0.02 дБ -9.79 дБ 3:55 12-Volver
--------------------------------------------------------------------------------

Количество треков: 12
Реальные значения DR: DR8

Частота: 44100 Гц
Каналов: 2
Разрядность: 16
Битрейт: 884 кбит/с
Кодек: FLAC
================================================================================
-----------------------

DON'T MODIFY THIS FILE

-----------------------

PERFORMER: auCDtect Task Manager, ver. 1.6.0 RC1 build 1.6.0.1
Copyright (c) 2008-2010 y-soft. All rights reserved
http://y-soft.org

ANALYZER: auCDtect: CD records authenticity detector, version 0.8.2
Copyright (c) 2004 Oleg Berngardt. All rights reserved.
Copyright (c) 2004 Alexander Djourik. All rights reserved.


FILE: 12. Volver.flac
Size: 26306529 Hash: 03293B79BE0BD8F9AD9CC68A3F614216 Accuracy: -m0
Conclusion: CDDA 99%
Signature: EB1A8D5F718B7583A1653AFAE435084C7DBF4FA1
FILE: 11. Gracias A La Vida.flac
Size: 25046660 Hash: 73CE39E006A4291CA70CAA83486EE230 Accuracy: -m0
Conclusion: CDDA 100%
Signature: 3BB8D55D88385AAF374985227759F06A1095BD33
FILE: 10. Historia De Un Amor.flac
Size: 25221153 Hash: 0A6F106D71DE1E106CA08477C20ECFB4 Accuracy: -m0
Conclusion: CDDA 100%
Signature: BD54317290C2818125D8A4329E31C1321322E6D9
FILE: 09. Guajira Guantanamera.flac
Size: 16237172 Hash: CDC97C6D733996A4EF3EE0E9E5755C02 Accuracy: -m0
Conclusion: CDDA 100%
Signature: 670D430FCDD868F4B5FE999473B4E6C20AB8F598
FILE: 08. La Morena De Mi Copla.flac
Size: 19720583 Hash: E2BC6246C235AA8EA05F356A3D1E0E3D Accuracy: -m0
Conclusion: CDDA 99%
Signature: A41EBED6FA38652B13EA66FD6200B264D57C8C7C
FILE: 07. Dos Cruces.flac
Size: 29196754 Hash: A81A27220276DE264DE6BCE9DBBF6ABA Accuracy: -m0
Conclusion: CDDA 100%
Signature: B7A9155E4BE3728D1C3E3AADAB7348EB43FC85DD
FILE: 06. Una Limosna Por El Amor de Dios.flac
Size: 26271666 Hash: E512F7D471AE1FF67362D8F1A2A6E91C Accuracy: -m0
Conclusion: CDDA 99%
Signature: 255A327835030A62BB6282853C71CDA8CE0D0520
FILE: 05. Adios Granada.flac
Size: 28248712 Hash: 18DE1EEA85C41CEB15C12FC5CB270F10 Accuracy: -m0
Conclusion: CDDA 100%
Signature: 968AA077F7FDC8685E9947D8A6726AE90CA7B6A8
FILE: 04. Coimbra.flac
Size: 17322990 Hash: CA1E999DD163CB5DA305AB62770C7C59 Accuracy: -m0
Conclusion: CDDA 100%
Signature: 02354E3E8164492D1336B9DF68386E8AF1AA6467
FILE: 03. Valeria's Bossa.flac
Size: 20697140 Hash: 154668A804EFAB913DCFF411E7E870F9 Accuracy: -m0
Conclusion: CDDA 100%
Signature: 413E45F024CD8FE42FE3082AAB6AAFC370DEF617
FILE: 02. Nunca.flac
Size: 21661322 Hash: F58FA09B102EA9585A2A2C2B913E3450 Accuracy: -m0
Conclusion: CDDA 100%
Signature: F9D98DBDA5E59075D086567978761A76BB124266
FILE: 01. Sabor A Mí.flac
Size: 19537857 Hash: 7471707D60F7E0F7BD7A62FDE310B3D0 Accuracy: -m0
Conclusion: CDDA 100%
Signature: A92876911822A53E8EFC733F85E8B134A30E8E40
Вверх