• Для скачивания альбомов c Облако Mail.Ru и Яндекс.Диск на нашем сайте необходимо зарегистрироваться.
  • Заказать необходимый альбом Вы можете в нашем специальном разделе "Стол заказов ".
Patty Pravo - LIVE La Fenice (Venezia) - Teatro Romano (Verona) (2018) [WEB / FLAC / lossless]

Patty Pravo - LIVE La Fenice (Venezia) - Teatro Romano (Verona) (2018) [WEB / FLAC / lossless]

нет прав для скачивания с cloud.mail.ru

Исполнитель: Patty Pravo
Альбом: LIVE La Fenice (Venezia) - Teatro Romano (Verona)
Носитель: WEB альбом
Дата выпуска: 2018
Жанр: Pop
Формат: FLAC (tracks)
Битрейт: 668-984 kbps
Продолжительность: 00:50:24 + 00:42:17
Скачать: filehost | turbobit | dfiles
Пароль на архив: grandorchestra

Треклист:
01. Concerto per Patty [00:11:09]
02.
Tutt'al più [00:05:14]
03.
Piccino (Petite) [00:04:18]
04.
La canzone dei vecchi amanti [00:05:17]
05.
Non andare via [00:05:19]
06.
A modo mio [00:05:02]
07.
Col tempo [00:04:43]
08.
Motherless Child [00:02:53]
09.
Dove andranno i nostri fiori [00:06:26]

foobar2000 1.3.9 / Замер динамического диапазона (DR) 1.1.1
Дата отчёта: 2018-10-27 13:14:33

--------------------------------------------------------------------------------
Анализ: Patty Pravo, Gaga Symphony Orchestra & Simone Tonin / LIVE La Fenice (Venezia) - Teatro Romano (Verona) (1)
Patty Pravo, Orchestra Sinfonica O.S.C.M. & Mauro Ottolini / LIVE La Fenice (Venezia) - Teatro Romano (Verona) (2-9)
--------------------------------------------------------------------------------

DR Пики RMS Продолжительность трека
--------------------------------------------------------------------------------
DR12 -0.15 дБ -14.99 дБ 2:54 08-Motherless Child
DR9 -0.09 дБ -12.26 дБ 11:10 01-Concerto per Patty
DR9 -0.09 дБ -13.29 дБ 5:14 02-Tutt'al più
DR13 -0.12 дБ -17.23 дБ 4:19 03-Piccino (Petite)
DR12 -0.09 дБ -14.89 дБ 5:17 04-La canzone dei vecchi amanti
DR9 -0.09 дБ -14.10 дБ 5:19 05-Non andare via
DR9 -0.09 дБ -12.24 дБ 5:02 06-A modo mio
DR14 -0.11 дБ -18.35 дБ 4:43 07-Col tempo
DR10 -0.09 дБ -13.69 дБ 6:26 09-Dove andranno i nostri fiori
--------------------------------------------------------------------------------

Количество треков: 9
Реальные значения DR: DR11

Частота: 44100 Гц
Каналов: 2
Разрядность: 16
Битрейт: 818 кбит/с
Кодек: FLAC
================================================================================
-----------------------

DON'T MODIFY THIS FILE

-----------------------

PERFORMER: auCDtect Task Manager, ver. 1.6.0 RC1 build 1.6.0.1
Copyright (c) 2008-2010 y-soft. All rights reserved
http://y-soft.org

ANALYZER: auCDtect: CD records authenticity detector, version 0.8.2
Copyright (c) 2004 Oleg Berngardt. All rights reserved.
Copyright (c) 2004 Alexander Djourik. All rights reserved.


FILE: 09. Dove Andranno I Nostri F.flac
Size: 39815690 Hash: 5254431470EEA1FBFE1DA06086CCD5B0 Accuracy: -m0
Conclusion: CDDA 100%
Signature: 787A0FFBAF0BEE834336B6C5B60372789962FA88
FILE: 08. Motherless Child.flac
Size: 16705572 Hash: D80983AB908173E62B7E7B4C6BDD25B1 Accuracy: -m0
Conclusion: CDDA 99%
Signature: D6B586F78EEF57EC4DD2EAD2DBBD62921097C781
FILE: 07. Col Tempo.flac
Size: 24016065 Hash: 11B90A864B40F0AA620ECC8E9472E0CB Accuracy: -m0
Conclusion: CDDA 100%
Signature: FD8A5E34B129954B7F00AEBA691D79783F836698
FILE: 06. A Modo Mio.flac
Size: 34120588 Hash: B4FB31B9EB8FC2D59F1CA5C2CD10201C Accuracy: -m0
Conclusion: CDDA 100%
Signature: B2491C61463D4C4F5C0F6EB673199D0C21FAD684
FILE: 05. Non Andare Via.flac
Size: 30078596 Hash: 1F4769E28AEAC853106600BE5A758FB0 Accuracy: -m0
Conclusion: CDDA 100%
Signature: 9E101A4063F6730F5107DF15EF090201D1C65263
FILE: 04. La Canzone Dei Vecchi Am.flac
Size: 34267899 Hash: 38C44A48DDCBC3EE1EAAA0BE2445A54D Accuracy: -m0
Conclusion: CDDA 100%
Signature: 9B010D869B96306A3A79A166DB3F4FF35E5EB931
FILE: 03. Piccino (Petite).flac
Size: 26413468 Hash: 460EA8D62BACD8DFD17E7ADB39594033 Accuracy: -m0
Conclusion: CDDA 85%
Signature: E2B3F94B7191375A926625DB2B1E870108C40CFD
FILE: 02. Tutt'al Più.flac
Size: 33015190 Hash: 55A5D6991D47D5748774FED9D9384F89 Accuracy: -m0
Conclusion: CDDA 100%
Signature: DDEF1E748C9E13C526C642A7A374F79CE3C99297
FILE: 01. Concerto Per Patty.flac
Size: 75258575 Hash: DAE0D17CBA861140F2BA14591F305E67 Accuracy: -m0
Conclusion: CDDA 100%
Signature: 4EE97517D132F452121E1B4A809C2E26A9B0DF4A
01. La bambola [00:04:05]
02.
Se perdo te [00:03:16]
03.
Orient Express [00:04:40]
04.
E dimmi che non vuoi morire [00:04:34]
05.
La viaggiatrice Bisanzio [00:04:20]
06.
Cieli immensi [00:04:28]
07.
Nuvole [00:04:24]
08.
Piramidi di vetro [00:03:18]
09.
Pensiero stupendo [00:04:34]
10.
Pazza idea [00:04:31]

foobar2000 1.3.9 / Замер динамического диапазона (DR) 1.1.1
Дата отчёта: 2018-10-27 13:14:42

--------------------------------------------------------------------------------
Анализ: Patty Pravo / LIVE La Fenice (Venezia) - Teatro Romano (Verona)
--------------------------------------------------------------------------------

DR Пики RMS Продолжительность трека
--------------------------------------------------------------------------------
DR8 -0.09 дБ -10.27 дБ 4:06 01-La bambola
DR9 -0.10 дБ -10.51 дБ 3:17 02-Se perdo te
DR9 -0.09 дБ -10.77 дБ 4:41 03-Orient Express
DR9 -0.10 дБ -11.31 дБ 4:35 04-E dimmi che non vuoi morire
DR9 -0.09 дБ -11.02 дБ 4:20 05-La viaggiatrice Bisanzio
DR9 -0.09 дБ -11.49 дБ 4:28 06-Cieli immensi
DR10 -0.13 дБ -13.73 дБ 4:25 07-Nuvole
DR10 -0.10 дБ -11.59 дБ 3:19 08-Piramidi di vetro
DR8 -0.10 дБ -11.24 дБ 4:35 09-Pensiero stupendo
DR9 -0.10 дБ -12.17 дБ 4:32 10-Pazza idea
--------------------------------------------------------------------------------

Количество треков: 10
Реальные значения DR: DR9

Частота: 44100 Гц
Каналов: 2
Разрядность: 16
Битрейт: 931 кбит/с
Кодек: FLAC
================================================================================
-----------------------

DON'T MODIFY THIS FILE

-----------------------

PERFORMER: auCDtect Task Manager, ver. 1.6.0 RC1 build 1.6.0.1
Copyright (c) 2008-2010 y-soft. All rights reserved
http://y-soft.org

ANALYZER: auCDtect: CD records authenticity detector, version 0.8.2
Copyright (c) 2004 Oleg Berngardt. All rights reserved.
Copyright (c) 2004 Alexander Djourik. All rights reserved.


FILE: 10. Pazza Idea.flac
Size: 31979031 Hash: A18FBF55D9FB11E93623AF33586761A3 Accuracy: -m0
Conclusion: CDDA 100%
Signature: BC145919FD3BE3641277F327EC2374F3009A87D8
FILE: 09. Pensiero Stupendo.flac
Size: 32427308 Hash: 0AAD47A0BEC9AB93940C7C9A177329B3 Accuracy: -m0
Conclusion: CDDA 99%
Signature: BF79A3BAC368FEE93C2C4160300FFC231F0094CC
FILE: 08. Piramidi Di Vetro.flac
Size: 23796157 Hash: 46FB3EA8057FC630A6BCB9336F3D2F40 Accuracy: -m0
Conclusion: CDDA 100%
Signature: FED61E565ADBF0EB16EA90A2A1E395BB0B7DD4E9
FILE: 07. Nuvole.flac
Size: 27477637 Hash: A0A615B0147A5AAD05826E9F15412D37 Accuracy: -m0
Conclusion: CDDA 100%
Signature: 8AFF394547D44496FD4A1727273A6C880AE22EE1
FILE: 06. Cieli Immensi.flac
Size: 31247234 Hash: 3E74FAF66ED66AFDEC167CECA406AF26 Accuracy: -m0
Conclusion: CDDA 100%
Signature: 045B078ABFB1C6A10B8DB9384298FCC1ED63EEBD
FILE: 05. La Viaggiatrice Bisanzio.flac
Size: 30296213 Hash: F8A938D7208CEB0A57A8D245D3D54EB7 Accuracy: -m0
Conclusion: CDDA 100%
Signature: 90153E458349A07762C13F4B45BD6EFAAAC547AA
FILE: 04. E Dimmi Che Non Vuoi Morire.flac
Size: 30627347 Hash: CF2F01E8AE5C3FAE08D38F633AA8876F Accuracy: -m0
Conclusion: CDDA 99%
Signature: 28D77765D9D2FED42D78E18A1F981BB0BAFF00EC
FILE: 03. Orient Express.flac
Size: 32273086 Hash: FA71F61A3AE06648E35A2DA0520F3358 Accuracy: -m0
Conclusion: CDDA 100%
Signature: 8E3B4ACE614A873322E1055423677A3B50A7092C
FILE: 02. Se Perdo Te.flac
Size: 23961157 Hash: D3D3381128068B54FC76248F1B2D73B6 Accuracy: -m0
Conclusion: CDDA 100%
Signature: 88A110B3CBFF84AF7D82F1F5951B355B0C51A283
FILE: 01. La Bambola.flac
Size: 30604932 Hash: BCE4876F1C86AD1BC38D8239F092BC2E Accuracy: -m0
Conclusion: CDDA 100%
Signature: 185970D1B663EF486A35A459A37C4DA6C918A8B6
Вверх