• Для скачивания альбомов c Облако Mail.Ru и Яндекс.Диск на нашем сайте необходимо зарегистрироваться.
  • Заказать необходимый альбом Вы можете в нашем специальном разделе "Стол заказов ".
Parra For Cuva - Paspatou, Pt. 2 (2018) [WEB / FLAC / lossless]

Parra For Cuva - Paspatou, Pt. 2 (2018) [WEB / FLAC / lossless]

нет прав для скачивания с cloud.mail.ru

Исполнитель: Parra For Cuva
Альбом: Paspatou, Pt. 2
Носитель: WEB альбом
Дата выпуска: 2018
Жанр: Pop
Формат: FLAC (tracks)
Битрейт: 933-944 kbps
Продолжительность: 00:13:08
Скачать: dfiles | douploads
Пароль на архив: grandorchestra

Треклист:
01. Cleopatra [00:03:53]
02.
Temperature of Traveling [00:05:02]
03.
Of Wonder [00:04:12]

foobar2000 1.3.9 / Замер динамического диапазона (DR) 1.1.1
Дата отчёта: 2018-10-31 21:45:38

--------------------------------------------------------------------------------
Анализ: Parra For Cuva, MAY / Paspatou, Pt. 2 (1)
Parra For Cuva / Paspatou, Pt. 2 (2-3)
--------------------------------------------------------------------------------

DR Пики RMS Продолжительность трека
--------------------------------------------------------------------------------
DR4 -0.27 дБ -7.22 дБ 3:53 01-Cleopatra
DR6 -0.27 дБ -10.04 дБ 5:03 02-Temperature of Traveling
DR5 -0.27 дБ -7.55 дБ 4:13 03-Of Wonder
--------------------------------------------------------------------------------

Количество треков: 3
Реальные значения DR: DR5

Частота: 44100 Гц
Каналов: 2
Разрядность: 16
Битрейт: 933 кбит/с
Кодек: FLAC
================================================================================
-----------------------

DON'T MODIFY THIS FILE

-----------------------

PERFORMER: auCDtect Task Manager, ver. 1.6.0 RC1 build 1.6.0.1
Copyright (c) 2008-2010 y-soft. All rights reserved
http://y-soft.org

ANALYZER: auCDtect: CD records authenticity detector, version 0.8.2
Copyright (c) 2004 Oleg Berngardt. All rights reserved.
Copyright (c) 2004 Alexander Djourik. All rights reserved.


FILE: 03. Of Wonder.flac
Size: 29544576 Hash: EB5268153650F04EE72D7534A327CA3D Accuracy: -m0
Conclusion: CDDA 100%
Signature: 3C0FFA0DD2DF9B147C5FB6B4A3DB3E3D3CA009AD
FILE: 02. Temperature Of Traveling.flac
Size: 35506702 Hash: 975E601ABD2AAC463429CA08319E8C34 Accuracy: -m0
Conclusion: CDDA 100%
Signature: E2042EA4E5787B75182EC8A66511F5A475FE8E90
FILE: 01. Cleopatra.flac
Size: 27600791 Hash: 7B0BF9B494426C79ED5D251FC64ED1A7 Accuracy: -m0
Conclusion: CDDA 100%
Signature: 5548388F5941ED80678B194B20C18544C8E7E32A
Вверх