• Для скачивания альбомов c Облако Mail.Ru и Яндекс.Диск на нашем сайте необходимо зарегистрироваться.
  • Заказать необходимый альбом Вы можете в нашем специальном разделе "Стол заказов ".
Pacho Flores - Fractales (2018) [WEB / FLAC / 24bit lossless]

Pacho Flores - Fractales (2018) [WEB / FLAC / 24bit lossless]

нет прав для скачивания с cloud.mail.ru

Исполнитель: Pacho Flores, Arctic Philharmonic Orchestra & Christian Lindberg
Альбом: Fractales
Носитель: WEB альбом
Дата выпуска: 2018
Жанр: Classical
Формат: FLAC (tracks)
Битрейт: 1328-1574 kbps
Продолжительность: 01:04:53
Скачать: filehost | turbobit | dfiles | douploads
Пароль на архив: grandorchestra

Треклист:
01. Lindberg: Akbank Bunka - 1. Akolebank [00:06:00]
02.
Lindberg: Akbank Bunka - 2. Japabunka [00:05:14]
03.
Lindberg: Akbank Bunka - 3. Turk Jazz [00:03:29]
04.
Haydn: Trumpet Concerto in E-Flat Major, Hob. Vlle/1 - 1. Allegro - Cadenza: Pacho Flores [00:06:52]
05.
Haydn: Trumpet Concerto in E-Flat Major, Hob. Vlle/1 - 2. Andante - Cadenza: Pacho Flores [00:03:59]
06.
Haydn: Trumpet Concerto in E-Flat Major, Hob. Vlle/1 - 3. Finale - Cadenza: Pacho Flores [00:04:37]
07.
Arutiunian: Trumpet Concerto in A-Flat Major [00:17:06]
08.
Sarasate: Zigeunerweisen op. 20 [00:08:46]
09.
Chega De Saudade (No More Blues) [00:04:01]
10.
Oblivion [00:04:45]

foobar2000 1.3.9 / Замер динамического диапазона (DR) 1.1.1
Дата отчёта: 2018-10-29 06:36:05

--------------------------------------------------------------------------------
Анализ: Pacho Flores, Arctic Philharmonic Orchestra & Christian Lindberg / Fractales
--------------------------------------------------------------------------------

DR Пики RMS Продолжительность трека
--------------------------------------------------------------------------------
DR15 -0.02 дБ -19.53 дБ 6:01 01-Lindberg: Akbank Bunka - 1. Akolebank
DR12 -0.27 дБ -17.01 дБ 5:15 02-Lindberg: Akbank Bunka - 2. Japabunka
DR13 -0.30 дБ -17.07 дБ 3:29 03-Lindberg: Akbank Bunka - 3. Turk Jazz
DR13 -3.68 дБ -21.50 дБ 6:52 04-Haydn: Trumpet Concerto in E-Flat Major, Hob. Vlle/1 - 1. Allegro - Cadenza: Pacho Flores
DR12 -6.66 дБ -26.04 дБ 4:00 05-Haydn: Trumpet Concerto in E-Flat Major, Hob. Vlle/1 - 2. Andante - Cadenza: Pacho Flores
DR15 -0.94 дБ -21.12 дБ 4:37 06-Haydn: Trumpet Concerto in E-Flat Major, Hob. Vlle/1 - 3. Finale - Cadenza: Pacho Flores
DR15 -0.39 дБ -20.93 дБ 17:06 07-Arutiunian: Trumpet Concerto in A-Flat Major
DR15 -0.79 дБ -23.30 дБ 8:46 08-Sarasate: Zigeunerweisen op. 20
DR12 -1.38 дБ -16.37 дБ 4:02 09-Chega De Saudade (No More Blues)
DR11 -0.69 дБ -16.36 дБ 4:45 10-Oblivion
--------------------------------------------------------------------------------

Количество треков: 10
Реальные значения DR: DR13

Частота: 48000 Гц
Каналов: 2
Разрядность: 24
Битрейт: 1467 кбит/с
Кодек: FLAC
================================================================================
Вверх