• Для скачивания альбомов c Облако Mail.Ru и Яндекс.Диск на нашем сайте необходимо зарегистрироваться.
  • Заказать необходимый альбом Вы можете в нашем специальном разделе "Стол заказов ".
Niall - Reiki Earth (2017) [WEB / FLAC / lossless]

Niall - Reiki Earth (2017) [WEB / FLAC / lossless]

нет прав для скачивания с cloud.mail.ru

Исполнитель: Niall
Альбом: Reiki Earth
Носитель: WEB альбом
Дата выпуска: 2017
Жанр: New Age
Формат: FLAC (tracks)
Битрейт: 717-873 kbps
Продолжительность: 01:02:06
Пароль на архив: grandorchestra

Треклист:
01. Reiki Earth - The Journey Begins [00:05:06]
02.
Reiki Earth - Part 2 [00:05:12]
03.
Reiki Earth - Part 3 [00:05:06]
04.
Reiki Earth - Part 4 [00:05:09]
05.
Reiki Earth - Part 5 [00:05:10]
06.
Reiki Earth - Part 6 [00:05:10]
07.
Reiki Earth - Part 7 [00:05:08]
08.
Reiki Earth - Part 8 [00:05:08]
09.
Reiki Earth - Part 9 [00:05:11]
10.
Reiki Earth - Part 10 [00:05:19]
11.
Reiki Earth - Part 11 [00:05:09]
12.
Reiki Earth - The Journey Ends [00:05:12]

foobar2000 1.3.9 / Замер динамического диапазона (DR) 1.1.1
Дата отчёта: 2018-09-29 09:07:01

--------------------------------------------------------------------------------
Анализ: Niall / Reiki Earth
--------------------------------------------------------------------------------

DR Пики RMS Продолжительность трека
--------------------------------------------------------------------------------
DR10 -0.20 дБ -14.81 дБ 5:06 01-Reiki Earth - The Journey Begins
DR9 -0.20 дБ -12.26 дБ 5:13 02-Reiki Earth - Part 2
DR10 -0.34 дБ -13.54 дБ 5:06 03-Reiki Earth - Part 3
DR10 -0.20 дБ -13.30 дБ 5:09 04-Reiki Earth - Part 4
DR8 -0.20 дБ -11.81 дБ 5:11 05-Reiki Earth - Part 5
DR9 -0.20 дБ -13.40 дБ 5:11 06-Reiki Earth - Part 6
DR10 -0.20 дБ -14.55 дБ 5:09 07-Reiki Earth - Part 7
DR9 -0.20 дБ -12.77 дБ 5:08 08-Reiki Earth - Part 8
DR10 -0.20 дБ -13.19 дБ 5:11 09-Reiki Earth - Part 9
DR10 -0.20 дБ -13.88 дБ 5:20 10-Reiki Earth - Part 10
DR9 -0.20 дБ -11.41 дБ 5:10 11-Reiki Earth - Part 11
DR10 -0.20 дБ -14.62 дБ 5:12 12-Reiki Earth - The Journey Ends
--------------------------------------------------------------------------------

Количество треков: 12
Реальные значения DR: DR10

Частота: 44100 Гц
Каналов: 2
Разрядность: 16
Битрейт: 787 кбит/с
Кодек: FLAC
================================================================================
-----------------------

DON'T MODIFY THIS FILE

-----------------------

PERFORMER: auCDtect Task Manager, ver. 1.6.0 RC1 build 1.6.0.1
Copyright (c) 2008-2010 y-soft. All rights reserved
http://y-soft.org

ANALYZER: auCDtect: CD records authenticity detector, version 0.8.2
Copyright (c) 2004 Oleg Berngardt. All rights reserved.
Copyright (c) 2004 Alexander Djourik. All rights reserved.


FILE: 12. Reiki Earth - The Journey Ends.flac
Size: 30854413 Hash: D9BEC769F043E4219A271DE5FB185A6D Accuracy: -m0
Conclusion: CDDA 100%
Signature: 6BC4C841666FD395F6CB4523EBACFD62A3C6B146
FILE: 11. Reiki Earth - Part 11.flac
Size: 32009367 Hash: 044836C5D5E9DF0E9CA848E9D315CB9D Accuracy: -m0
Conclusion: CDDA 100%
Signature: 55ECAF44A7164B9526D0E4B5038074DBBB5934C6
FILE: 10. Reiki Earth - Part 10.flac
Size: 33863805 Hash: 98C18BCE116AD9D86AC73ED778B2727D Accuracy: -m0
Conclusion: CDDA 100%
Signature: 01E3D402DB17C40955AC7091D5570C27CA82303B
FILE: 09. Reiki Earth - Part 9.flac
Size: 30651279 Hash: 3AAC278754B2E90725C3ED6DC3722230 Accuracy: -m0
Conclusion: CDDA 100%
Signature: 118BC3AF869B11A5428582BA876BB83237761018
FILE: 08. Reiki Earth - Part 8.flac
Size: 31976948 Hash: F91D7D9F762B14272916AE35608CDBAA Accuracy: -m0
Conclusion: CDDA 100%
Signature: BD5507100B6E828FA4347FE53736A47A13975800
FILE: 07. Reiki Earth - Part 7.flac
Size: 33869228 Hash: CD8A96698B82354E0BB53F76C68071C0 Accuracy: -m0
Conclusion: CDDA 100%
Signature: 7278892E0F1C7F81CAEDDBAA4E25B7B6784D5847
FILE: 06. Reiki Earth - Part 6.flac
Size: 32647640 Hash: 80899A9E290F05D2C7B07098F058E178 Accuracy: -m0
Conclusion: CDDA 100%
Signature: 2215AEFCAB594228F41BBF779E464E1D667AB147
FILE: 05. Reiki Earth - Part 5.flac
Size: 29835104 Hash: 7733E85C0091575070CA12E7219EF72F Accuracy: -m0
Conclusion: CDDA 100%
Signature: DBD3261FF09CCA3256EC5523E757EBC9E35C7471
FILE: 04. Reiki Earth - Part 4.flac
Size: 28767630 Hash: 39AD540F3F38DE46A5237761883FEDD5 Accuracy: -m0
Conclusion: CDDA 100%
Signature: F291ADA1EA72C2420D0B521506715AD5AA9FCF8B
FILE: 03. Reiki Earth - Part 3.flac
Size: 33048701 Hash: 0D6493119A02869E83B4057E8605D66B Accuracy: -m0
Conclusion: CDDA 100%
Signature: A6789778D739FE3C92E302107B31666D4CF9B125
FILE: 02. Reiki Earth - Part 2.flac
Size: 29010608 Hash: DAB757D0051FA676458638E25BD5D075 Accuracy: -m0
Conclusion: CDDA 100%
Signature: 62FFBB6640F152BC70A78CD101B467E9D7CEF294
FILE: 01. Reiki Earth - The Journey Begins.flac
Size: 27623252 Hash: 6385EB3057BECDE97BAC1F76FE5EF477 Accuracy: -m0
Conclusion: CDDA 100%
Signature: DCAB39A4040B0C2A13E796230AA2477854416BD9
Вверх