• Для скачивания альбомов c Облако Mail.Ru и Яндекс.Диск на нашем сайте необходимо зарегистрироваться.
  • Заказать необходимый альбом Вы можете в нашем специальном разделе "Стол заказов ".
Michael Bublé - Nobody But Me (2016) [WEB / FLAC / 24bit lossless]

Michael Bublé - Nobody But Me (2016) [WEB / FLAC / 24bit lossless]

нет прав для скачивания с cloud.mail.ru

Исполнитель: Michael Bublé
Альбом: Nobody But Me
Носитель: WEB альбом
Дата выпуска: 2016
Жанр: Pop
Формат: FLAC (tracks)
Битрейт: 1312-1747 kbps
Продолжительность: 00:34:43
Пароль на архив: grandorchestra

Треклист:
01. I Believe in You [00:03:21]
02.
My Kind of Girl [00:04:06]
03.
Nobody But Me [00:02:59]
04.
On an Evening in Roma (Sott'er Celo de Roma) [00:02:42]
05.
Today Is Yesterday's Tomorrow [00:03:24]
06.
The Very Thought of You [00:03:31]
07.
I Wanna Be Around [00:03:42]
08.
Someday (feat. Meghan Trainor) [00:03:23]
09.
My Baby Just Cares for Me [00:03:15]
10.
God Only Knows [00:04:15]

foobar2000 1.3.9 / Замер динамического диапазона (DR) 1.1.1
Дата отчёта: 2018-09-29 15:11:19

--------------------------------------------------------------------------------
Анализ: Michael Bublé / Nobody But Me
--------------------------------------------------------------------------------

DR Пики RMS Продолжительность трека
--------------------------------------------------------------------------------
DR7 0.00 дБ -9.04 дБ 3:22 01-I Believe in You
DR8 0.00 дБ -10.08 дБ 4:06 02-My Kind of Girl
DR5 0.00 дБ -6.69 дБ 3:00 03-Nobody But Me
DR9 0.00 дБ -11.00 дБ 2:43 04-On an Evening in Roma (Sott'er Celo de Roma)
DR6 0.00 дБ -7.74 дБ 3:25 05-Today Is Yesterday's Tomorrow
DR10 0.00 дБ -11.85 дБ 3:32 06-The Very Thought of You
DR8 0.00 дБ -10.31 дБ 3:42 07-I Wanna Be Around
DR6 0.00 дБ -8.26 дБ 3:23 08-Someday (feat. Meghan Trainor)
DR8 0.00 дБ -10.21 дБ 3:16 09-My Baby Just Cares for Me
DR12 0.00 дБ -15.90 дБ 4:15 10-God Only Knows
--------------------------------------------------------------------------------

Количество треков: 10
Реальные значения DR: DR8

Частота: 44100 Гц
Каналов: 2
Разрядность: 24
Битрейт: 1313 кбит/с
Кодек: FLAC
================================================================================
Вверх