• Для скачивания альбомов c Облако Mail.Ru и Яндекс.Диск на нашем сайте необходимо зарегистрироваться.
  • Заказать необходимый альбом Вы можете в нашем специальном разделе "Стол заказов ".
Medwyn Goodall - Moon Goddess (1996) [CD / FLAC / lossless]

Medwyn Goodall - Moon Goddess (1996) [CD / FLAC / lossless]

нет прав для скачивания с cloud.mail.ru

Исполнитель: Medwyn Goodall
Альбом: Moon Goddess
Носитель: CD
Лейбл: New World Music
Дата выпуска: 1996
Жанр: New Age
Формат: FLAC (tracks)
Битрейт: 766-883 kbps
Продолжительность: 00:44:27
Пароль на архив: grandorchestra

Треклист:
01. Eyes Of Heaven [00:08:25]
02.
Full Moon Magic [00:07:21]
03.
Banquet In The Woods [00:06:53]
04.
Drawing Down The Moon [00:06:09]
05.
Deepest Secrets [00:07:24]
06.
Moonlit Whispers [00:08:13]


Exact Audio Copy V1.3 from 2. September 2016

EAC extraction logfile from 24. March 2018, 17:20

Medwyn Goodall / Moon Goddess

Used drive : Optiarc DVD RW AD-7191S Adapter: 1 ID: 0

Read mode : Secure
Utilize accurate stream : Yes
Defeat audio cache : Yes
Make use of C2 pointers : No

Read offset correction : 6
Overread into Lead-In and Lead-Out : No
Fill up missing offset samples with silence : Yes
Delete leading and trailing silent blocks : No
Null samples used in CRC calculations : Yes
Used interface : Native Win32 interface for Win NT & 2000
Gap handling : Appended to previous track

Used output format : User Defined Encoder
Selected bitrate : 896 kBit/s
Quality : High
Add ID3 tag : No
Command line compressor : C:\Program Files (x86)\Exact Audio Copy\Flac\flac.exe
Additional command line options : -8 -V -T "ARTIST=%artist%" -T "TITLE=%title%" -T "ALBUM=%albumtitle%" -T "DATE=%year%" -T "TRACKNUMBER=%tracknr%" -T "GENRE=%genre%" -T "COMMENT=ripped by newage special for newage-music.ru" %source%

TOC of the extracted CD

Track | Start | Length | Start sector | End sector
---------------------------------------------------------
1 | 0:00.00 | 8:25.65 | 0 | 37939
2 | 8:25.65 | 7:21.10 | 37940 | 71024
3 | 15:47.00 | 6:53.25 | 71025 | 102024
4 | 22:40.25 | 6:09.00 | 102025 | 129699
5 | 28:49.25 | 7:24.12 | 129700 | 163011
6 | 36:13.37 | 8:13.68 | 163012 | 200054

Track 1

Filename K:\Music\___________\CD\Moon Goddess\01. Medwyn Goodall - Eyes Of Heaven.wav

Pre-gap length 0:00:02.00

Peak level 98.6 %
Extraction speed 4.1 X
Track quality 100.0 %
Test CRC 72854A88
Copy CRC 72854A88
Cannot be verified as accurate (confidence 4) [5F23EEA5], AccurateRip returned [AD5C88F6] (AR v2)
Copy OK

Track 2

Filename K:\Music\___________\CD\Moon Goddess\02. Medwyn Goodall - Full Moon Magic.wav

Pre-gap length 0:00:01.74

Peak level 94.2 %
Extraction speed 4.8 X
Track quality 100.0 %
Test CRC 1A584951
Copy CRC 1A584951
Cannot be verified as accurate (confidence 5) [2C27D433], AccurateRip returned [BC167AB3] (AR v2)
Copy OK

Track 3

Filename K:\Music\___________\CD\Moon Goddess\03. Medwyn Goodall - Banquet In The Woods.wav

Pre-gap length 0:00:01.18

Peak level 90.6 %
Extraction speed 4.6 X
Track quality 99.9 %
Test CRC 267BED12
Copy CRC 267BED12
Cannot be verified as accurate (confidence 4) [842C679B], AccurateRip returned [F18AC6A6] (AR v2)
Copy OK

Track 4

Filename K:\Music\___________\CD\Moon Goddess\04. Medwyn Goodall - Drawing Down The Moon.wav

Pre-gap length 0:00:01.54

Peak level 96.3 %
Extraction speed 5.7 X
Track quality 100.0 %
Test CRC 5A902F49
Copy CRC 5A902F49
Cannot be verified as accurate (confidence 4) [88D3C1AD], AccurateRip returned [BED9EF84] (AR v2)
Copy OK

Track 5

Filename K:\Music\___________\CD\Moon Goddess\05. Medwyn Goodall - Deepest Secrets.wav

Pre-gap length 0:00:01.28

Peak level 85.0 %
Extraction speed 6.2 X
Track quality 100.0 %
Test CRC 9E050A29
Copy CRC 9E050A29
Cannot be verified as accurate (confidence 4) [24570A6A], AccurateRip returned [9D674E6E] (AR v2)
Copy OK

Track 6

Filename K:\Music\___________\CD\Moon Goddess\06. Medwyn Goodall - Moonlit Whispers.wav

Pre-gap length 0:00:00.45

Peak level 89.6 %
Extraction speed 6.7 X
Track quality 100.0 %
Test CRC E6B3B0BF
Copy CRC E6B3B0BF
Cannot be verified as accurate (confidence 5) [21E1E4BA], AccurateRip returned [A0C4BA14] (AR v2)
Copy OK

No tracks could be verified as accurate
You may have a different pressing from the one(s) in the database

No errors occurred

End of status report

---- CUETools DB Plugin V2.1.6

[CTDB TOCID: k9ZedFbOmuL46HrxIXmsRPUH8o0-] found
Submit result: k9ZedFbOmuL46HrxIXmsRPUH8o0- has been confirmed
Track | CTDB Status
1 | (35/38) Accurately ripped
2 | (36/38) Accurately ripped
3 | (36/38) Accurately ripped
4 | (36/38) Accurately ripped
5 | (36/38) Accurately ripped
6 | (36/38) Accurately ripped

==== Log checksum B2C45DA9BCCDDE423E9E4D1D05A49C06A629754DFA951EB1EBCBA2A402E4008C ====
REM GENRE "New Age"
REM DATE 1996
REM DISCID 4B0A6B06
REM COMMENT "ExactAudioCopy v1.3"
PERFORMER "Medwyn Goodall"
TITLE "Moon Goddess"
REM COMPOSER ""
FILE "01. Medwyn Goodall - Eyes Of Heaven.wav" WAVE
TRACK 01 AUDIO
TITLE "Eyes Of Heaven"
PERFORMER "Medwyn Goodall"
REM COMPOSER ""
FLAGS DCP
INDEX 01 00:00:00
TRACK 02 AUDIO
TITLE "Full Moon Magic"
PERFORMER "Medwyn Goodall"
REM COMPOSER ""
FLAGS DCP
INDEX 00 08:23:66
FILE "02. Medwyn Goodall - Full Moon Magic.wav" WAVE
INDEX 01 00:00:00
TRACK 03 AUDIO
TITLE "Banquet In The Woods"
PERFORMER "Medwyn Goodall"
REM COMPOSER ""
FLAGS DCP
INDEX 00 07:19:67
FILE "03. Medwyn Goodall - Banquet In The Woods.wav" WAVE
INDEX 01 00:00:00
TRACK 04 AUDIO
TITLE "Drawing Down The Moon"
PERFORMER "Medwyn Goodall"
REM COMPOSER ""
FLAGS DCP
INDEX 00 06:51:46
FILE "04. Medwyn Goodall - Drawing Down The Moon.wav" WAVE
INDEX 01 00:00:00
TRACK 05 AUDIO
TITLE "Deepest Secrets"
PERFORMER "Medwyn Goodall"
REM COMPOSER ""
FLAGS DCP
INDEX 00 06:07:47
FILE "05. Medwyn Goodall - Deepest Secrets.wav" WAVE
INDEX 01 00:00:00
TRACK 06 AUDIO
TITLE "Moonlit Whispers"
PERFORMER "Medwyn Goodall"
REM COMPOSER ""
FLAGS DCP
INDEX 00 07:23:42
FILE "06. Medwyn Goodall - Moonlit Whispers.wav" WAVE
INDEX 01 00:00:00
foobar2000 1.3.9 / Замер динамического диапазона (DR) 1.1.1
Дата отчёта: 2018-03-24 21:09:28

--------------------------------------------------------------------------------
Анализ: Medwyn Goodall / Moon Goddess
--------------------------------------------------------------------------------

DR Пики RMS Продолжительность трека
--------------------------------------------------------------------------------
DR14 -0.12 дБ -16.32 дБ 8:26 01-Eyes Of Heaven
DR13 -0.52 дБ -16.89 дБ 7:21 02-Full Moon Magic
DR12 -0.85 дБ -15.84 дБ 6:53 03-Banquet In The Woods
DR13 -0.32 дБ -15.08 дБ 6:09 04-Drawing Down The Moon
DR14 -1.40 дБ -18.39 дБ 7:24 05-Deepest Secrets
DR13 -0.95 дБ -16.11 дБ 8:14 06-Moonlit Whispers
--------------------------------------------------------------------------------

Количество треков: 6
Реальные значения DR: DR13

Частота: 44100 Гц
Каналов: 2
Разрядность: 16
Битрейт: 854 кбит/с
Кодек: FLAC
================================================================================
-----------------------

DON'T MODIFY THIS FILE

-----------------------

PERFORMER: auCDtect Task Manager, ver. 1.6.0 RC1 build 1.6.0.1
Copyright (c) 2008-2010 y-soft. All rights reserved
http://y-soft.org

ANALYZER: auCDtect: CD records authenticity detector, version 0.8.2
Copyright (c) 2004 Oleg Berngardt. All rights reserved.
Copyright (c) 2004 Alexander Djourik. All rights reserved.

FILE: 06. Medwyn Goodall - Moonlit Whispers.flac
Size: 52713794 Hash: 76A00A283BD89A3E595E2FF8061576E5 Accuracy: -m0
Conclusion: CDDA 100%
Signature: AB37354B9B055D0D072EBA44BDAA070BA9C687D7
FILE: 05. Medwyn Goodall - Deepest Secrets.flac
Size: 46665400 Hash: 34C8E94B680EFB9B0F331DA10A079449 Accuracy: -m0
Conclusion: CDDA 100%
Signature: A6078DBCA55B16B89481E0C135C65AC87FEC4D63
FILE: 04. Medwyn Goodall - Drawing Down The Moon.flac
Size: 40778416 Hash: 17F40660A10D38D062F47BF0D4A43F48 Accuracy: -m0
Conclusion: CDDA 100%
Signature: F0A8BE9BC156C2744C7371413311DF86478FD143
FILE: 03. Medwyn Goodall - Banquet In The Woods.flac
Size: 40929891 Hash: C39672E24190548F9C6F23EC118E7314 Accuracy: -m0
Conclusion: CDDA 100%
Signature: ECC30D1BB995D7ADA97561375D2CB3FF3B0D57AB
FILE: 02. Medwyn Goodall - Full Moon Magic.flac
Size: 42295445 Hash: 93A0A38504EC9DD2884F5732C51005F0 Accuracy: -m0
Conclusion: CDDA 100%
Signature: 82D028C02C518C97A2ABCF054A6F78EFADA946D9
FILE: 01. Medwyn Goodall - Eyes Of Heaven.flac
Size: 52835158 Hash: EA84699072658021AD3077C1E660844D Accuracy: -m0
Conclusion: CDDA 99%
Signature: 98F55143651BEA1F3B7FE645FCDD738900C5009E

Последние отзывы

Один из лучших альбомов Медвина
Вверх