• Для скачивания альбомов c Облако Mail.Ru и Яндекс.Диск на нашем сайте необходимо зарегистрироваться.
  • Заказать необходимый альбом Вы можете в нашем специальном разделе "Стол заказов ".
Matthew Parker - Daydreamer (2018) [WEB / FLAC / lossless]

Matthew Parker - Daydreamer (2018) [WEB / FLAC / lossless]

нет прав для скачивания с cloud.mail.ru

Исполнитель: Matthew Parker
Альбом: Daydreamer
Носитель: WEB альбом
Дата выпуска: 2018
Жанр: Pop
Формат: FLAC (tracks)
Битрейт: 807-1045 kbps
Продолжительность: 00:59:48
Скачать: filehost | turbobit | dfiles | douploads
Пароль на архив: grandorchestra

Треклист:
01. Alice [00:03:12]
02.
Good Memories [00:03:31]
03.
All I’m After [00:03:20]
04.
Breathe [00:03:30]
05.
Paradise [00:03:47]
06.
Blue Diamonds [00:03:55]
07.
Let Ü Go [00:03:33]
08.
Braver [00:03:36]
09.
Every Other Day [00:03:51]
10.
Lately [00:03:37]
11.
Find Ü [00:03:26]
12.
Legends [00:03:33]
13.
Bittersweet [00:03:50]
14.
Lucid [00:03:28]
15.
I Miss Ü [00:03:50]
16.
Time Stands Still [00:05:40]

foobar2000 1.3.9 / Замер динамического диапазона (DR) 1.1.1
Дата отчёта: 2018-10-31 20:59:36

--------------------------------------------------------------------------------
Анализ: Matthew Parker / Daydreamer
--------------------------------------------------------------------------------

DR Пики RMS Продолжительность трека
--------------------------------------------------------------------------------
DR9 -0.69 дБ -11.97 дБ 3:13 01-Alice
DR8 -0.07 дБ -9.96 дБ 3:31 02-Good Memories
DR8 0.00 дБ -10.00 дБ 3:20 03-All I’m After
DR8 0.00 дБ -10.17 дБ 3:31 04-Breathe
DR7 0.00 дБ -10.16 дБ 3:47 05-Paradise
DR8 0.00 дБ -9.87 дБ 3:55 06-Blue Diamonds
DR7 0.00 дБ -8.82 дБ 3:34 07-Let Ü Go
DR8 0.00 дБ -9.83 дБ 3:37 08-Braver
DR8 0.00 дБ -9.82 дБ 3:52 09-Every Other Day
DR8 0.00 дБ -9.69 дБ 3:38 10-Lately
DR8 0.00 дБ -9.61 дБ 3:26 11-Find Ü
DR7 0.00 дБ -8.67 дБ 3:34 12-Legends
DR8 0.00 дБ -10.40 дБ 3:51 13-Bittersweet
DR7 -0.08 дБ -10.05 дБ 3:29 14-Lucid
DR8 0.00 дБ -10.45 дБ 3:50 15-I Miss Ü
DR9 0.00 дБ -11.68 дБ 5:41 16-Time Stands Still
--------------------------------------------------------------------------------

Количество треков: 16
Реальные значения DR: DR8

Частота: 44100 Гц
Каналов: 2
Разрядность: 16
Битрейт: 850 кбит/с
Кодек: FLAC
================================================================================
-----------------------

DON'T MODIFY THIS FILE

-----------------------

PERFORMER: auCDtect Task Manager, ver. 1.6.0 RC1 build 1.6.0.1
Copyright (c) 2008-2010 y-soft. All rights reserved
http://y-soft.org

ANALYZER: auCDtect: CD records authenticity detector, version 0.8.2
Copyright (c) 2004 Oleg Berngardt. All rights reserved.
Copyright (c) 2004 Alexander Djourik. All rights reserved.


FILE: 16. Time Stands Still.flac
Size: 36196027 Hash: 690F576FFEF9A38E355F65F366ECCEEC Accuracy: -m0
Conclusion: CDDA 100%
Signature: 3D621709359475B109680CCB80DF5CFFC993EE2F
FILE: 15. I Miss Ü.flac
Size: 28970099 Hash: 0794C182860014E45B7C16684CA92378 Accuracy: -m0
Conclusion: CDDA 99%
Signature: 96473C1D44437C67CA4D7F5F55C60BFD19747CB8
FILE: 14. Lucid.flac
Size: 25705272 Hash: 00D343D6BE76A0D017EE515A8478DCB9 Accuracy: -m0
Conclusion: CDDA 99%
Signature: 46C60AF598325164A33E8B3DAD3853611ABAD2F3
FILE: 13. Bittersweet.flac
Size: 27851543 Hash: 8C4E4630FC3DF84BD513D0D37F66D253 Accuracy: -m0
Conclusion: CDDA 100%
Signature: 717B86394C0AA52FA3DE24B6B8CDE0AD0CF4313A
FILE: 12. Legends.flac
Size: 21590382 Hash: 22C58050AE726B0488CEC4A10BC33592 Accuracy: -m0
Conclusion: CDDA 100%
Signature: F3EA9E8C2E7D25B175B398C6A5281E71B0B20DC9
FILE: 11. Find Ü.flac
Size: 26979041 Hash: 48E2895BC0850971957165C12FD423E6 Accuracy: -m0
Conclusion: CDDA 100%
Signature: B43F1DC276B1C47999CEF2BB6D85DB0111C34793
FILE: 10. Lately.flac
Size: 25356726 Hash: 2708E4B5EFA2D0519AC370EB9F6F6F18 Accuracy: -m0
Conclusion: CDDA 100%
Signature: A28F4B4E17AE3633D6800B2B3149C452675DDBA1
FILE: 09. Every Other Day.flac
Size: 27365889 Hash: CD9A89381C027D60ACF85B92E37710DE Accuracy: -m0
Conclusion: CDDA 99%
Signature: 590C76D6A028DFCDF86F618C47DB156DF0B7DC92
FILE: 08. Braver.flac
Size: 27175189 Hash: 8F6FF7308785C8934A4EFCE1EF15E63D Accuracy: -m0
Conclusion: CDDA 100%
Signature: 24449DE1161DB30BD0CD41930453823E1BB1E674
FILE: 07. Let Ü Go.flac
Size: 24862398 Hash: 502E5D7C8249666769493273BD1FE19A Accuracy: -m0
Conclusion: CDDA 99%
Signature: 8C3EFCD746D67E76809D1A528A0433F26A6CDB8B
FILE: 06. Blue Diamonds.flac
Size: 27541078 Hash: 6C2017B8EDDF1FD79418A07498155A65 Accuracy: -m0
Conclusion: CDDA 99%
Signature: 2DB1A1FBB6AD40EDEC09BFDB7BEFA84A0A73440F
FILE: 05. Paradise.flac
Size: 29531062 Hash: EE12C2C7C2CF06D21F90601C210F630E Accuracy: -m0
Conclusion: CDDA 100%
Signature: 961558451EFBC09E744E252649CCDDE1A16DF175
FILE: 04. Breathe.flac
Size: 25240445 Hash: 4093C3C74C30E82273BD87AA6E3CC7D3 Accuracy: -m0
Conclusion: CDDA 99%
Signature: 049F6FEE0E187B7C9699395D23F403E3877576DC
FILE: 03. All I’m After.flac
Size: 23209072 Hash: 7A8A6AE14280041A651F29AD6CF670B1 Accuracy: -m0
Conclusion: CDDA 100%
Signature: 6CD4148208126DBA6CFD4D23F80C843BF2515BE5
FILE: 02. Good Memories.flac
Size: 27385442 Hash: 6A7FC7CD6DA94E96180FE6500A33D8BB Accuracy: -m0
Conclusion: CDDA 100%
Signature: C0A8C2993ECA36AC4E3EAEAE9B89E9F7F7D27753
FILE: 01. Alice.flac
Size: 20964872 Hash: 8B46A67FDC9003D612C91287A52A1E19 Accuracy: -m0
Conclusion: CDDA 99%
Signature: DBB06E65B0135D3DD554E8BE271E5B7FF929F78A
Вверх