• Для скачивания альбомов c Облако Mail.Ru и Яндекс.Диск на нашем сайте необходимо зарегистрироваться.
  • Заказать необходимый альбом Вы можете в нашем специальном разделе "Стол заказов ".
Lukas Graham - 3 (The Purple Album) (2018) [WEB / FLAC / 24bit lossless]

Lukas Graham - 3 (The Purple Album) (2018) [WEB / FLAC / 24bit lossless]

нет прав для скачивания с cloud.mail.ru

Исполнитель: Lukas Graham
Альбом: 3 (The Purple Album)
Носитель: WEB альбом
Дата выпуска: 2018
Жанр: Pop
Формат: FLAC (tracks)
Битрейт: 1466-1660 kbps
Продолжительность: 00:33:16
Скачать: filehost | turbobit | dfiles
Пароль на архив: grandorchestra

Треклист:
01. Not a Damn Thing Changed [00:03:13]
02.
Lullaby [00:03:11]
03.
You're Not the Only One (Redemption Song) [00:03:03]
04.
Love Someone [00:03:25]
05.
Promise [00:03:14]
06.
Stick Around [00:03:12]
07.
Unhappy [00:03:16]
08.
Everything That Isn't Me [00:03:17]
09.
Hold My Hand [00:03:47]
10.
Say Yes (Church Ballad) [00:03:33]

foobar2000 1.3.9 / Замер динамического диапазона (DR) 1.1.1
Дата отчёта: 2018-10-27 16:53:18

--------------------------------------------------------------------------------
Анализ: Lukas Graham / 3 (The Purple Album)
--------------------------------------------------------------------------------

DR Пики RMS Продолжительность трека
--------------------------------------------------------------------------------
DR6 0.00 дБ -7.43 дБ 3:14 01-Not a Damn Thing Changed
DR4 0.00 дБ -7.32 дБ 3:12 02-Lullaby
DR4 0.00 дБ -7.64 дБ 3:04 03-You're Not the Only One (Redemption Song)
DR6 0.00 дБ -8.41 дБ 3:25 04-Love Someone
DR6 0.00 дБ -8.20 дБ 3:14 05-Promise
DR6 0.00 дБ -10.27 дБ 3:13 06-Stick Around
DR6 0.00 дБ -8.19 дБ 3:16 07-Unhappy
DR8 0.00 дБ -11.90 дБ 3:18 08-Everything That Isn't Me
DR5 0.00 дБ -8.21 дБ 3:48 09-Hold My Hand
DR5 0.00 дБ -8.21 дБ 3:34 10-Say Yes (Church Ballad)
--------------------------------------------------------------------------------

Количество треков: 10
Реальные значения DR: DR6

Частота: 44100 Гц
Каналов: 2
Разрядность: 24
Битрейт: 1578 кбит/с
Кодек: FLAC
================================================================================
Вверх