• Для скачивания альбомов c Облако Mail.Ru и Яндекс.Диск на нашем сайте необходимо зарегистрироваться.
  • Заказать необходимый альбом Вы можете в нашем специальном разделе "Стол заказов ".
Louis Landon - Solo Piano Fantasies (2018) [WEB / FLAC / lossless]

Louis Landon - Solo Piano Fantasies (2018) [WEB / FLAC / lossless]

нет прав для скачивания с cloud.mail.ru

Исполнитель: Louis Landon
Альбом: Solo Piano Fantasies
Носитель: WEB альбом
Дата выпуска: 2018
Жанр: New Age
Формат: FLAC (tracks)
Битрейт: 521-634 kbps
Продолжительность: 00:54:51
Скачать: dfiles | douploads
Пароль на архив: grandorchestra

Треклист:
01. Through the Dark Forest [00:04:21]
02.
Onward [00:03:42]
03.
Sky Gliding [00:04:51]
04.
It's the Truth [00:03:01]
05.
Ecstatic [00:04:05]
06.
Barn Raising Celebration [00:03:33]
07.
Danza Veloce [00:03:27]
08.
Why [00:03:15]
09.
It Feels Like Spring [00:05:23]
10.
Guidance from Above [00:03:25]
11.
Sacred Secret Painted Canyon [00:04:34]
12.
Underwater [00:04:00]
13.
Waves of Love [00:04:58]
14.
Prayer for the New Day [00:02:10]

foobar2000 1.3.9 / Замер динамического диапазона (DR) 1.1.1
Дата отчёта: 2018-11-03 09:23:49

--------------------------------------------------------------------------------
Анализ: Louis Landon / Solo Piano Fantasies
--------------------------------------------------------------------------------

DR Пики RMS Продолжительность трека
--------------------------------------------------------------------------------
DR8 -0.29 дБ -10.88 дБ 4:22 01-Through the Dark Forest
DR11 -0.30 дБ -13.07 дБ 3:43 02-Onward
DR11 -0.29 дБ -13.48 дБ 4:52 03-Sky Gliding
DR12 -0.30 дБ -15.70 дБ 3:02 04-It's the Truth
DR9 -0.29 дБ -11.91 дБ 4:05 05-Ecstatic
DR8 -0.29 дБ -10.04 дБ 3:33 06-Barn Raising Celebration
DR9 -0.29 дБ -12.61 дБ 3:27 07-Danza Veloce
DR11 -0.30 дБ -14.19 дБ 3:16 08-Why
DR9 -0.29 дБ -11.95 дБ 5:23 09-It Feels Like Spring
DR11 -0.29 дБ -13.02 дБ 3:25 10-Guidance from Above
DR11 -0.29 дБ -13.23 дБ 4:34 11-Sacred Secret Painted Canyon
DR10 -0.29 дБ -13.11 дБ 4:00 12-Underwater
DR8 -0.29 дБ -11.06 дБ 4:58 13-Waves of Love
DR11 -0.30 дБ -14.46 дБ 2:10 14-Prayer for the New Day
--------------------------------------------------------------------------------

Количество треков: 14
Реальные значения DR: DR10

Частота: 44100 Гц
Каналов: 2
Разрядность: 16
Битрейт: 533 кбит/с
Кодек: FLAC
================================================================================
-----------------------

DON'T MODIFY THIS FILE

-----------------------

PERFORMER: auCDtect Task Manager, ver. 1.6.0 RC1 build 1.6.0.1
Copyright (c) 2008-2010 y-soft. All rights reserved
http://y-soft.org

ANALYZER: auCDtect: CD records authenticity detector, version 0.8.2
Copyright (c) 2004 Oleg Berngardt. All rights reserved.
Copyright (c) 2004 Alexander Djourik. All rights reserved.


FILE: 14. Prayer For The New Day.flac
Size: 8688998 Hash: F40E698BEC513E48275703D544CC90E1 Accuracy: -m0
Conclusion: CDDA 100%
Signature: A6AFE08F5F2B258810EAADFC40BCAD4239DE552B
FILE: 13. Waves Of Love.flac
Size: 22003137 Hash: 850D322BF55E8F2985810247260901B9 Accuracy: -m0
Conclusion: CDDA 100%
Signature: C882966AB628F5C2933088C01BB9C094C3429474
FILE: 12. Underwater.flac
Size: 16652736 Hash: E74FB068169B803A994B8E44B06449BD Accuracy: -m0
Conclusion: CDDA 100%
Signature: 164029BEE6097FD88E8CC7AE947E35F6F0843CF9
FILE: 11. Sacred Secret Painted Canyon.flac
Size: 19653224 Hash: 1307108B30489FD608D016810457D8C8 Accuracy: -m0
Conclusion: CDDA 100%
Signature: 737437354AF38C7E4109E7B13D74E1C5D2A7FFBE
FILE: 10. Guidance From Above.flac
Size: 14684160 Hash: 67D5E1B4C36337ABCD94019B33C8FC8B Accuracy: -m0
Conclusion: CDDA 100%
Signature: 6CA65F0EF3B6692DE1A9808E9E3EDE49E111A55B
FILE: 09. It Feels Like Spring.flac
Size: 23756302 Hash: 238675B998DB92674999653A46442C59 Accuracy: -m0
Conclusion: CDDA 100%
Signature: BA96C10126B6A72B3770B26EE4C63D114B30C0D0
FILE: 08. Why.flac
Size: 13313880 Hash: F0FEC94525E836C47EA82552C1A8B386 Accuracy: -m0
Conclusion: CDDA 100%
Signature: 2957692FEB7B3D9654EE41DDBF554309757E743F
FILE: 07. Danza Veloce.flac
Size: 14723234 Hash: 58AB9B1913D91B0FDB3BBF6308384D76 Accuracy: -m0
Conclusion: CDDA 100%
Signature: 2F7902E6F86A0FDEB7EBDDB2ABCED1833ED0EEEB
FILE: 06. Barn Raising Celebration.flac
Size: 16930328 Hash: DD2FE963366800852326A6436BC41221 Accuracy: -m0
Conclusion: CDDA 100%
Signature: 2C3CF925BC6DC7223BDE75EBB92C4BE2E3F7511C
FILE: 05. Ecstatic.flac
Size: 18379402 Hash: 9CC3803E8A1DCFFBD810C5506800C104 Accuracy: -m0
Conclusion: CDDA 100%
Signature: 27F6386FBAFAD2CA438BD40BC04509BAF48594DA
FILE: 04. It's The Truth.flac
Size: 11862853 Hash: A8A14DB9E4F1C60B380E787266238BA0 Accuracy: -m0
Conclusion: CDDA 100%
Signature: 28F0DEAD4C20BBE2B877B28A1028391A94C05D54
FILE: 03. Sky Gliding.flac
Size: 20392556 Hash: 97260643651AB5A0BF8A261CA5F5A038 Accuracy: -m0
Conclusion: CDDA 100%
Signature: 06FE29DD06B9FE33FFDC2DAD4A0EAC865AB463A3
FILE: 02. Onward.flac
Size: 15868693 Hash: BC9D6649F08CF7ECAA05A1F7DD557E70 Accuracy: -m0
Conclusion: CDDA 100%
Signature: 7567F442898DB0141B9BFFE541D7E80BA5033394
FILE: 01. Through The Dark Forest.flac
Size: 19614894 Hash: A346A4771C6DE67FF529DE7BE09DAC89 Accuracy: -m0
Conclusion: CDDA 100%
Signature: 98A47FEC01F10FF578D579420C97FEC6BBD34BAB
Вверх