• Для скачивания альбомов c Облако Mail.Ru и Яндекс.Диск на нашем сайте необходимо зарегистрироваться.
  • Заказать необходимый альбом Вы можете в нашем специальном разделе "Стол заказов ".
Led Zeppelin - An Introduction To Led Zeppelin (2018) [WEB / FLAC / 24bit lossless]

Led Zeppelin - An Introduction To Led Zeppelin (2018) [WEB / FLAC / 24bit lossless]

нет прав для скачивания с cloud.mail.ru

Исполнитель: Led Zeppelin
Альбом: An Introduction To Led Zeppelin
Носитель: WEB альбом
Дата выпуска: 2018
Жанр: Rock
Формат: FLAC (tracks)
Битрейт: 1592-1866 kbps
Продолжительность: 00:49:02
Пароль на архив: grandorchestra

Треклист:
01. Immigrant Song [00:02:26]
02.
Rock And Roll (Sunset Sound Mix) [00:03:43]
03.
Whole Lotta Love [00:05:34]
04.
Black Dog [00:04:55]
05.
Stairway To Heaven [00:08:02]
06.
Good Times Bad Times [00:02:46]
07.
Going To California [00:03:32]
08.
Ramble On [00:04:34]
09.
Kashmir [00:08:37]
10.
Over The Hills And Far Away [00:04:50]

foobar2000 1.3.9 / Замер динамического диапазона (DR) 1.1.1
Дата отчёта: 2018-09-29 19:40:56

--------------------------------------------------------------------------------
Анализ: Led Zeppelin / An Introduction To Led Zeppelin
--------------------------------------------------------------------------------

DR Пики RMS Продолжительность трека
--------------------------------------------------------------------------------
DR9 -0.01 дБ -10.53 дБ 2:26 1/1-Immigrant Song
DR9 -0.17 дБ -10.76 дБ 3:43 2/10-Rock And Roll (Sunset Sound Mix)
DR9 0.00 дБ -13.19 дБ 5:35 3/10-Whole Lotta Love
DR10 -0.02 дБ -12.51 дБ 4:55 4/10-Black Dog
DR10 -0.19 дБ -15.23 дБ 8:03 5/10-Stairway To Heaven
DR8 -1.26 дБ -11.53 дБ 2:46 6/10-Good Times Bad Times
DR9 -2.33 дБ -15.72 дБ 3:32 7/10-Going To California
DR10 -0.44 дБ -14.27 дБ 4:34 8/10-Ramble On
DR10 -0.01 дБ -12.37 дБ 8:37 9/10-Kashmir
DR10 0.00 дБ -14.02 дБ 4:51 10/10-Over The Hills And Far Away
--------------------------------------------------------------------------------

Количество треков: 10
Реальные значения DR: DR10

Частота: 48000 Гц
Каналов: 2
Разрядность: 24
Битрейт: 1724 кбит/с
Кодек: FLAC
================================================================================
Вверх