• Для скачивания альбомов c Облако Mail.Ru и Яндекс.Диск на нашем сайте необходимо зарегистрироваться.
  • Заказать необходимый альбом Вы можете в нашем специальном разделе "Стол заказов ".
Lauren Daigle - Look Up Child (2018) [WEB / FLAC / lossless]

Lauren Daigle - Look Up Child (2018) [WEB / FLAC / lossless]

нет прав для скачивания с cloud.mail.ru

Исполнитель: Lauren Daigle
Альбом: Look Up Child
Носитель: WEB альбом
Дата выпуска: 2018
Жанр: Pop
Формат: FLAC (tracks)
Битрейт: 776-1015 kbps
Продолжительность: 00:51:42
Пароль на архив: grandorchestra

Треклист:
01. Still Rolling Stones [00:04:08]
02.
Rescue [00:03:35]
03.
This Girl [00:04:33]
04.
Your Wings [00:02:28]
05.
You Say [00:04:34]
06.
Everything [00:04:18]
07.
Love Like This [00:04:14]
08.
Look Up Child [00:03:03]
09.
Losing My Religion [00:03:29]
10.
Remember [00:03:58]
11.
Rebel Heart [00:04:06]
12.
Inevitable [00:02:40]
13.
Turn Your Eyes Upon Jesus [00:06:29]

foobar2000 1.3.9 / Замер динамического диапазона (DR) 1.1.1
Дата отчёта: 2018-09-30 23:06:32

--------------------------------------------------------------------------------
Анализ: Lauren Daigle / Look Up Child
--------------------------------------------------------------------------------

DR Пики RMS Продолжительность трека
--------------------------------------------------------------------------------
DR4 -0.10 дБ -7.25 дБ 4:08 01-Still Rolling Stones
DR6 -0.10 дБ -9.50 дБ 3:36 02-Rescue
DR5 -0.10 дБ -9.57 дБ 4:34 03-This Girl
DR6 -0.10 дБ -7.65 дБ 2:28 04-Your Wings
DR5 -0.10 дБ -7.87 дБ 4:35 05-You Say
DR5 -0.10 дБ -8.10 дБ 4:19 06-Everything
DR5 -0.10 дБ -8.33 дБ 4:15 07-Love Like This
DR5 -0.10 дБ -7.59 дБ 3:03 08-Look Up Child
DR5 -0.10 дБ -8.06 дБ 3:30 09-Losing My Religion
DR5 -0.10 дБ -7.97 дБ 3:59 10-Remember
DR6 -1.00 дБ -10.86 дБ 4:07 11-Rebel Heart
DR10 -0.90 дБ -13.36 дБ 2:41 12-Inevitable
DR6 -0.10 дБ -8.91 дБ 6:30 13-Turn Your Eyes Upon Jesus
--------------------------------------------------------------------------------

Количество треков: 13
Реальные значения DR: DR6

Частота: 44100 Гц
Каналов: 2
Разрядность: 16
Битрейт: 900 кбит/с
Кодек: FLAC
================================================================================
-----------------------

DON'T MODIFY THIS FILE

-----------------------

PERFORMER: auCDtect Task Manager, ver. 1.6.0 RC1 build 1.6.0.1
Copyright (c) 2008-2010 y-soft. All rights reserved
http://y-soft.org

ANALYZER: auCDtect: CD records authenticity detector, version 0.8.2
Copyright (c) 2004 Oleg Berngardt. All rights reserved.
Copyright (c) 2004 Alexander Djourik. All rights reserved.


FILE: 13. Turn Your Eyes Upon Jesus.flac
Size: 44241183 Hash: 5E3543A1D2B2A6BBD094663BFD4A7A8A Accuracy: -m0
Conclusion: CDDA 100%
Signature: 6A0A887726841A662825B15C6B0BFF35552E8255
FILE: 12. Inevitable.flac
Size: 15952381 Hash: 364E6E5A012E649FB33BFDCE06F5F38B Accuracy: -m0
Conclusion: CDDA 100%
Signature: 2E6537006ED01C45CE4346E6CEC5D27A04B00DCA
FILE: 11. Rebel Heart.flac
Size: 28251454 Hash: 3C10039AB548B40C55731C5DE6B9C162 Accuracy: -m0
Conclusion: CDDA 99%
Signature: 29C9EBF099F83C2CFEC8602E39EADBE087035BDB
FILE: 10. Remember.flac
Size: 29290020 Hash: 635022F49DAEBEAB992C33871B257C20 Accuracy: -m0
Conclusion: CDDA 100%
Signature: 296E5FC7A70F2339C166895C11ECE37288BC59CE
FILE: 09. Losing My Religion.flac
Size: 26331021 Hash: AD2CCF3A37F11CF9A5787BFC5D2FDE54 Accuracy: -m0
Conclusion: CDDA 100%
Signature: D448D779272E050D72334D5B749A5C24A045E0C6
FILE: 08. Look Up Child.flac
Size: 23121571 Hash: 6E45872C83B60D08A7658135066F20D2 Accuracy: -m0
Conclusion: CDDA 100%
Signature: 7648CB28B35DB14C986E97CE981F87C9AED057ED
FILE: 07. Love Like This.flac
Size: 30737291 Hash: 0616205A67553460CCBAE5186E308C2E Accuracy: -m0
Conclusion: CDDA 100%
Signature: 71CBA16223D4153AF7B573A94B2D03B76D838CF0
FILE: 06. Everything.flac
Size: 31656036 Hash: DFFD5303CBCD892E4DDFB91966B6FBA3 Accuracy: -m0
Conclusion: CDDA 100%
Signature: F2815086D5F805044DBA86555177C0E2A697DDEB
FILE: 05. You Say.flac
Size: 32514207 Hash: 3B0B9554383768F524E8BCE06FC378A3 Accuracy: -m0
Conclusion: CDDA 100%
Signature: D627D37E618FF42BFC54BD89BFCFD898E9FD9131
FILE: 04. Your Wings.flac
Size: 19169338 Hash: 59BC2F15998DF7390729B5288648E7F0 Accuracy: -m0
Conclusion: CDDA 100%
Signature: 8417447CC9C97DCC87C1C5495D30DECBB0E5D417
FILE: 03. This Girl.flac
Size: 32162320 Hash: BDD316D77EEE97E4E16E8942CA0C1057 Accuracy: -m0
Conclusion: CDDA 100%
Signature: 5EFCFF29AE43B08A7BC143C48586842A27C60FE0
FILE: 02. Rescue.flac
Size: 25249446 Hash: 73C8DFEE8C49BCDCE87E338BE2895CDB Accuracy: -m0
Conclusion: CDDA 100%
Signature: EDDE617E1BA0ECC0CAD39ED6D79BEE6DCCB604BD
FILE: 01. Still Rolling Stones.flac
Size: 30977601 Hash: 6B44EB72CA826EABF75F13CBC4D94B46 Accuracy: -m0
Conclusion: CDDA 100%
Signature: C4EB2D647A50DB3133EDC661D69A272FB92ADD0F
Вверх