• Для скачивания альбомов c Облако Mail.Ru и Яндекс.Диск на нашем сайте необходимо зарегистрироваться.
  • Заказать необходимый альбом Вы можете в нашем специальном разделе "Стол заказов ".
Kylie Minogue  - Golden (2018) [WEB / FLAC / 24bit lossless]

Kylie Minogue - Golden (2018) [WEB / FLAC / 24bit lossless]

нет прав для скачивания с cloud.mail.ru

Исполнитель: Kylie Minogue
Альбом: Golden
Носитель: WEB альбом
Дата выпуска: 2018
Жанр: Pop
Формат: FLAC (tracks)
Битрейт: 970-1890 kbps
Продолжительность: 00:54:09
Пароль на архив: grandorchestra

Треклист:
01. Dancing [00:02:58]
02.
Stop Me from Falling [00:03:01]
03.
Golden [00:03:07]
04.
A Lifetime to Repair [00:03:19]
05.
Sincerely Yours [00:03:28]
06.
One Last Kiss [00:03:41]
07.
Live a Little [00:03:07]
08.
Shelby '68 [00:03:35]
09.
Radio On [00:03:42]
10.
Love [00:02:52]*
11.
Raining Glitter [00:03:33]
12.
Music's Too Sad Without You [00:04:09]
13.
Lost Without You [00:04:04]
14.
Every Little Part of Me [00:02:58]
15.
Rollin' [00:03:32]
16.
Low Blow [00:02:56]*

* 10, 16 - 16 bit

foobar2000 1.3.9 / Замер динамического диапазона (DR) 1.1.1
Дата отчёта: 2018-09-30 17:42:26

--------------------------------------------------------------------------------
Анализ: Kylie Minogue / Golden
--------------------------------------------------------------------------------

DR Пики RMS Продолжительность трека
--------------------------------------------------------------------------------
DR6 -0.34 дБ -8.76 дБ 2:52 10-Love
DR7 -0.52 дБ -8.20 дБ 2:56 16-Low Blow
--------------------------------------------------------------------------------

Количество треков: 2
Реальные значения DR: DR6

Частота: 44100 Гц
Каналов: 2
Разрядность: 16
Битрейт: 971 кбит/с
Кодек: FLAC
================================================================================

--------------------------------------------------------------------------------
Анализ: Kylie Minogue & Jack Savoretti / Golden (1)
Kylie Minogue / Golden (2-14)
--------------------------------------------------------------------------------

DR Пики RMS Продолжительность трека
--------------------------------------------------------------------------------
DR5 -0.93 дБ -8.13 дБ 4:10 12-Music's Too Sad Without You
DR4 -1.74 дБ -7.99 дБ 2:59 01-Dancing
DR6 0.00 дБ -7.70 дБ 3:02 02-Stop Me from Falling
DR6 -0.22 дБ -8.28 дБ 3:08 03-Golden
DR6 -0.81 дБ -8.62 дБ 3:19 04-A Lifetime to Repair
DR6 -0.74 дБ -8.17 дБ 3:29 05-Sincerely Yours
DR5 -0.80 дБ -8.11 дБ 3:41 06-One Last Kiss
DR6 -0.76 дБ -9.90 дБ 3:08 07-Live a Little
DR6 -0.37 дБ -8.80 дБ 3:35 08-Shelby '68
DR6 -0.89 дБ -9.72 дБ 3:43 09-Radio On
DR6 0.00 дБ -7.50 дБ 3:33 11-Raining Glitter
DR5 -0.52 дБ -8.26 дБ 4:05 13-Lost Without You
DR6 -0.47 дБ -8.41 дБ 2:58 14-Every Little Part of Me
DR7 -0.48 дБ -8.97 дБ 3:32 15-Rollin'
--------------------------------------------------------------------------------

Количество треков: 14
Реальные значения DR: DR6

Частота: 48000 Гц
Каналов: 2
Разрядность: 24
Битрейт: 1857 кбит/с
Кодек: FLAC
================================================================================
Вверх