• Для скачивания альбомов c Облако Mail.Ru и Яндекс.Диск на нашем сайте необходимо зарегистрироваться.
  • Заказать необходимый альбом Вы можете в нашем специальном разделе "Стол заказов ".
Kimbra - Songs from Primal Heart: Reimagined (2018) [WEB / FLAC / 24bit lossless]

Kimbra - Songs from Primal Heart: Reimagined (2018) [WEB / FLAC / 24bit lossless]

нет прав для скачивания с cloud.mail.ru

Исполнитель: Kimbra
Альбом: Songs from Primal Heart: Reimagined
Носитель: WEB альбом
Дата выпуска: 2018
Жанр: Pop
Формат: FLAC (tracks)
Битрейт: 1363-1415 kbps
Продолжительность: 00:18:03
Скачать: filehost | turbobit | dfiles
Пароль на архив: grandorchestra

Треклист:
01. Black Sky (Reimagined) [00:05:24]
02.
Everybody Knows (Reimagined) [00:04:46]
03.
The Good War (Reimagined) [00:04:19]
04.
Hi Def Distance Romance (Reimagined) [00:03:32]

foobar2000 1.3.9 / Замер динамического диапазона (DR) 1.1.1
Дата отчёта: 2018-10-27 15:21:45

--------------------------------------------------------------------------------
Анализ: Kimbra / Songs from Primal Heart: Reimagined
--------------------------------------------------------------------------------

DR Пики RMS Продолжительность трека
--------------------------------------------------------------------------------
DR9 -0.10 дБ -13.01 дБ 5:25 01-Black Sky (Reimagined)
DR9 -0.09 дБ -12.94 дБ 4:46 02-Everybody Knows (Reimagined)
DR11 -0.10 дБ -14.48 дБ 4:19 03-The Good War (Reimagined)
DR9 -0.10 дБ -12.53 дБ 3:33 04-Hi Def Distance Romance (Reimagined)
--------------------------------------------------------------------------------

Количество треков: 4
Реальные значения DR: DR10

Частота: 44100 Гц
Каналов: 2
Разрядность: 24
Битрейт: 1415 кбит/с
Кодек: FLAC
================================================================================
Вверх