• Для скачивания альбомов c Облако Mail.Ru и Яндекс.Диск на нашем сайте необходимо зарегистрироваться.
  • Заказать необходимый альбом Вы можете в нашем специальном разделе "Стол заказов ".
Khalid - Suncity (2018) [WEB / FLAC / lossless]

Khalid - Suncity (2018) [WEB / FLAC / lossless]

нет прав для скачивания с cloud.mail.ru

Исполнитель: Khalid
Альбом: Suncity
Носитель: WEB альбом
Дата выпуска: 2018
Жанр: R&B/Soul
Формат: FLAC (tracks)
Битрейт: 575-864 kbps
Продолжительность: 00:21:12
Скачать: filehost | turbobit | dfiles
Пароль на архив: grandorchestra

Треклист:
01. 9.13 [00:00:55]
02.
Vertigo [00:04:30]
03.
Saturday Nights [00:03:29]
04.
Salem's Interlude [00:01:21]
05.
Motion [00:03:55]
06.
Better [00:03:49]
07.
Suncity (feat. Empress Of) [00:03:09]

foobar2000 1.3.9 / Замер динамического диапазона (DR) 1.1.1
Дата отчёта: 2018-10-21 21:37:40

--------------------------------------------------------------------------------
Анализ: Khalid / Suncity
--------------------------------------------------------------------------------

DR Пики RMS Продолжительность трека
--------------------------------------------------------------------------------
DR12 -0.43 дБ -16.74 дБ 0:56 01-9.13
DR4 -0.01 дБ -6.95 дБ 4:30 02-Vertigo
DR6 -0.01 дБ -8.77 дБ 3:30 03-Saturday Nights
DR8 -0.02 дБ -10.58 дБ 1:22 04-Salem's Interlude
DR6 -0.01 дБ -7.83 дБ 3:56 05-Motion
DR4 -0.02 дБ -6.44 дБ 3:49 06-Better
DR5 -0.01 дБ -6.16 дБ 3:09 07-Suncity (feat. Empress Of)
--------------------------------------------------------------------------------

Количество треков: 7
Реальные значения DR: DR7

Частота: 44100 Гц
Каналов: 2
Разрядность: 16
Битрейт: 864 кбит/с
Кодек: FLAC
================================================================================
-----------------------

DON'T MODIFY THIS FILE

-----------------------

PERFORMER: auCDtect Task Manager, ver. 1.6.0 RC1 build 1.6.0.1
Copyright (c) 2008-2010 y-soft. All rights reserved
http://y-soft.org

ANALYZER: auCDtect: CD records authenticity detector, version 0.8.2
Copyright (c) 2004 Oleg Berngardt. All rights reserved.
Copyright (c) 2004 Alexander Djourik. All rights reserved.


FILE: 07. Suncity (feat. Empress Of).flac
Size: 20955773 Hash: A47EAF0E394179801737D4BFD9EE4DD9 Accuracy: -m0
Conclusion: CDDA 100%
Signature: 80B559E471767A6EF5E965C9CEBCC7883BDA6371
FILE: 06. Better.flac
Size: 22113451 Hash: 42BDC23E60523AE511490530EFEE40ED Accuracy: -m0
Conclusion: CDDA 100%
Signature: EA84D35250285B815DE543562F8662CC1E7EA9BA
FILE: 05. Motion.flac
Size: 24634655 Hash: ED06A1EDD960ED303045EC92BA1A846F Accuracy: -m0
Conclusion: CDDA 99%
Signature: FE2AF031BB1AB92E8B6533AD2C93B420E0490E20
FILE: 04. Salem's Interlude.flac
Size: 6720637 Hash: CD98AB2AC75502E713F69670B50035F1 Accuracy: -m0
Conclusion: CDDA 100%
Signature: C6A932D153C1EB7442966CE3CFC5F936EA394523
FILE: 03. Saturday Nights.flac
Size: 21237260 Hash: BD1605C0CAA8573A39A78BFA5B10BA93 Accuracy: -m0
Conclusion: CDDA 100%
Signature: 9410C67E6FF2D7103E218AA2058644F312A5BBF6
FILE: 02. Vertigo.flac
Size: 29025033 Hash: D885B8753986593DAAE0270701C2E8DE Accuracy: -m0
Conclusion: CDDA 100%
Signature: 6820CF0A0BA4A0A77B7B328685256B430482946B
FILE: 01. 9.13.flac
Size: 4492732 Hash: B30198EEFB65FA99B2D5BBFEEB3C6047 Accuracy: -m0
Conclusion: CDDA 100%
Signature: E1279039AF52826F8433ECCE333045F60B45F45C
Вверх