• Для скачивания альбомов c Облако Mail.Ru и Яндекс.Диск на нашем сайте необходимо зарегистрироваться.
  • Заказать необходимый альбом Вы можете в нашем специальном разделе "Стол заказов ".
Jungle - For Ever (2018-09-14) [WEB / FLAC / lossless]

Jungle - For Ever (2018-09-14) [WEB / FLAC / lossless]

нет прав для скачивания с cloud.mail.ru

Исполнитель: Jungle
Альбом: For Ever
Носитель: WEB альбом
Дата выпуска: 2018-09-14
Жанр: Electronic
Формат: FLAC (tracks)
Битрейт: 641-943 kbps
Продолжительность: 00:45:59
Пароль на архив: grandorchestra

Треклист:
01. Smile [00:03:07]
02. Heavy, California [00:03:04]
03. Beat 54 (All Good Now) [00:04:06]
04. Cherry [00:03:16]
05. Happy Man [00:03:11]
06. Casio [00:03:54]
07. Mama Oh No [00:03:17]
08. House In LA [00:04:43]
09. Give Over [00:03:33]
10. Cosurmyne [00:03:39]
11. Home [00:02:12]
12. (More and More) It Ain't Easy [00:03:11]
13. Pray [00:04:40]

foobar2000 1.3.9 / Замер динамического диапазона (DR) 1.1.1
Дата отчёта: 2018-09-26 22:30:13

--------------------------------------------------------------------------------
Анализ: Jungle / For Ever
--------------------------------------------------------------------------------

DR Пики RMS Продолжительность трека
--------------------------------------------------------------------------------
DR6 -0.39 дБ -7.82 дБ 3:07 01-Smile
DR5 -0.22 дБ -7.61 дБ 3:05 02-Heavy, California
DR5 -0.35 дБ -6.90 дБ 4:07 03-Beat 54 (All Good Now)
DR6 -0.26 дБ -8.38 дБ 3:16 04-Cherry
DR6 -0.18 дБ -8.12 дБ 3:12 05-Happy Man
DR7 -0.41 дБ -8.62 дБ 3:54 06-Casio
DR5 -0.43 дБ -7.20 дБ 3:17 07-Mama Oh No
DR6 -0.41 дБ -8.22 дБ 4:44 08-House In LA
DR6 -0.31 дБ -8.02 дБ 3:33 09-Give Over
DR6 -0.41 дБ -7.26 дБ 3:40 10-Cosurmyne
DR9 -0.48 дБ -11.02 дБ 2:12 11-Home
DR10 -0.36 дБ -10.86 дБ 3:12 12-(More and More) It Ain't Easy
DR5 -0.33 дБ -7.23 дБ 4:41 13-Pray
--------------------------------------------------------------------------------

Количество треков: 13
Реальные значения DR: DR6

Частота: 44100 Гц
Каналов: 2
Разрядность: 16
Битрейт: 931 кбит/с
Кодек: FLAC
================================================================================
-----------------------

DON'T MODIFY THIS FILE

-----------------------

PERFORMER: auCDtect Task Manager, ver. 1.6.0 RC1 build 1.6.0.1
Copyright (c) 2008-2010 y-soft. All rights reserved
http://y-soft.org

ANALYZER: auCDtect: CD records authenticity detector, version 0.8.2
Copyright (c) 2004 Oleg Berngardt. All rights reserved.
Copyright (c) 2004 Alexander Djourik. All rights reserved.


FILE: 13. Pray.flac
Size: 32902014 Hash: C727B913E9836460FD6DF5C71956B31E Accuracy: -m0
Conclusion: CDDA 100%
Signature: 43E84B1C21DE8BACF35AE7EDC6AA427A22ED19A5
FILE: 12. (More and More) It Ain't Easy.flac
Size: 21465482 Hash: F16D5B1CE66BDD4372E9AB82D4634941 Accuracy: -m0
Conclusion: CDDA 99%
Signature: 8AF19C9F218619DC3A7E29260E64C532714104AF
FILE: 11. Home.flac
Size: 10847391 Hash: 80A2A3B3352910D0AD9C62FC5A4BDE74 Accuracy: -m0
Conclusion: CDDA 100%
Signature: B682BA5E12B6F251E4F0F9777FEECB3E5BB4ED94
FILE: 10. Cosurmyne.flac
Size: 22262939 Hash: 8B9C033BDB7CF83040DE43B0E8B029F6 Accuracy: -m0
Conclusion: CDDA 100%
Signature: 0D635EA522E99241AFEE5FA525ED3713DEAF6531
FILE: 09. Give Over.flac
Size: 22884137 Hash: 7C160C1DDE50571A59F9D72DDDB0BDA0 Accuracy: -m0
Conclusion: CDDA 100%
Signature: 6BFDD8B7685F28451ADE0AC751A7B26BA3923A17
FILE: 08. House In LA.flac
Size: 31166772 Hash: E17F834493515857029ED81D54CF42AD Accuracy: -m0
Conclusion: CDDA 100%
Signature: F95EBCB5B226F0809ABE9D1D48D7E369F13A9388
FILE: 07. Mama Oh No.flac
Size: 20877158 Hash: 6D2E95155C819A659089B6E6335B2D7C Accuracy: -m0
Conclusion: CDDA 100%
Signature: 845B573E64F8548F948CD0510590F5D5A69F6A92
FILE: 06. Casio.flac
Size: 24035398 Hash: CF67DA2575033A1F4E921B63AFF3D6D5 Accuracy: -m0
Conclusion: CDDA 100%
Signature: 7F0C34A9E7837C01C15900994654048B5D81B46D
FILE: 05. Happy Man.flac
Size: 22616480 Hash: D95F9617D9332F29DF0CF453AA6D6150 Accuracy: -m0
Conclusion: CDDA 100%
Signature: 4180FE46EE03E8CE660718106B6F41273712EE7E
FILE: 04. Cherry.flac
Size: 20294557 Hash: 8C7B863C07F9FBBB60AA8CEB39F3DBB5 Accuracy: -m0
Conclusion: CDDA 100%
Signature: 3884EFB1B12BB54E992C6F902C4BD0C6EDA0EA2A
FILE: 03. Beat 54 (All Good Now).flac
Size: 29056185 Hash: AEAB047E28537DCBE2E3B99E64189614 Accuracy: -m0
Conclusion: CDDA 100%
Signature: 5992FECE57A1DDFF40F9FBB62ECBE3DD7F741ED9
FILE: 02. Heavy, California.flac
Size: 22027317 Hash: 43E109504E0D03FD9195AE7065DD8300 Accuracy: -m0
Conclusion: CDDA 100%
Signature: 0CEDB6544E155A8F62B5B4269F81730D3466401B
FILE: 01. Smile.flac
Size: 20259893 Hash: FCE923C35D708C5DF22CE73459D4FEBE Accuracy: -m0
Conclusion: CDDA 100%
Signature: 9FC5D677B6FA151DD0E11C30014BD6D52877CCAB
Вверх