• Для скачивания альбомов c Облако Mail.Ru и Яндекс.Диск на нашем сайте необходимо зарегистрироваться.
  • Заказать необходимый альбом Вы можете в нашем специальном разделе "Стол заказов ".
Josh Turner, Sonya Isaacs - I Serve A Savior (2018) [WEB / FLAC / lossless]

Josh Turner, Sonya Isaacs - I Serve A Savior (2018) [WEB / FLAC / lossless]

нет прав для скачивания с cloud.mail.ru

Исполнитель: Josh Turner, Sonya Isaacs
Альбом: I Serve A Savior
Носитель: WEB альбом
Дата выпуска: 2018
Жанр: Country
Формат: FLAC (tracks)
Битрейт: 686-942 kbps
Продолжительность: 00:41:57
Скачать: filehost | turbobit | dfiles | douploads
Пароль на архив: grandorchestra

Треклист:
01. I Saw The Light [00:03:21]
02.
I Pray My Way Out Of Trouble [00:03:38]
03.
Great Is Your Faithfulness [00:04:14]
04.
Swing Low, Sweet Chariot [00:03:51]
05.
Without Him [00:03:05]
06.
I Serve A Savior [00:04:07]
07.
How Great Thou Art [00:04:23]
08.
The River (Of Happiness) (Live From Gaither Studios) [00:01:40]
09.
Amazing Grace [00:05:19]
10.
Long Black Train (Live From Gaither Studios) [00:04:21]
11.
Doxology [00:00:41]
12.
Me And God (Live From Gaither Studios) [00:03:11]

foobar2000 1.3.9 / Замер динамического диапазона (DR) 1.1.1
Дата отчёта: 2018-10-29 22:07:33

--------------------------------------------------------------------------------
Анализ: Josh Turner, Sonya Isaacs / I Serve A Savior
--------------------------------------------------------------------------------

DR Пики RMS Продолжительность трека
--------------------------------------------------------------------------------
DR5 0.00 дБ -7.48 дБ 3:21 01-I Saw The Light
DR6 -0.13 дБ -7.34 дБ 3:39 02-I Pray My Way Out Of Trouble
DR8 -0.18 дБ -10.21 дБ 4:14 03-Great Is Your Faithfulness
DR6 0.00 дБ -7.57 дБ 3:51 04-Swing Low, Sweet Chariot
DR7 -0.04 дБ -8.67 дБ 3:06 05-Without Him
DR6 0.00 дБ -7.73 дБ 4:08 06-I Serve A Savior
DR8 -0.09 дБ -10.69 дБ 4:23 07-How Great Thou Art
DR8 -0.14 дБ -11.41 дБ 1:40 08-The River (Of Happiness) (Live From Gaither Studios)
DR5 0.00 дБ -6.52 дБ 5:19 09-Amazing Grace
DR5 0.00 дБ -7.46 дБ 4:21 10-Long Black Train (Live From Gaither Studios)
DR9 -2.66 дБ -13.72 дБ 0:42 11-Doxology
DR6 0.00 дБ -7.01 дБ 3:11 12-Me And God (Live From Gaither Studios)
--------------------------------------------------------------------------------

Количество треков: 12
Реальные значения DR: DR7

Частота: 44100 Гц
Каналов: 2
Разрядность: 16
Битрейт: 915 кбит/с
Кодек: FLAC
================================================================================
-----------------------

DON'T MODIFY THIS FILE

-----------------------

PERFORMER: auCDtect Task Manager, ver. 1.6.0 RC1 build 1.6.0.1
Copyright (c) 2008-2010 y-soft. All rights reserved
http://y-soft.org

ANALYZER: auCDtect: CD records authenticity detector, version 0.8.2
Copyright (c) 2004 Oleg Berngardt. All rights reserved.
Copyright (c) 2004 Alexander Djourik. All rights reserved.


FILE: 12. Me And God (Live From Gaither Studios).flac
Size: 21897168 Hash: ECAA6CA8704165B0A11D8CBC5AF2CFC1 Accuracy: -m0
Conclusion: CDDA 100%
Signature: 99CAFD2493BE0B1858F5D79657017DDEB37A73F9
FILE: 11. Doxology.flac
Size: 3590090 Hash: 36EBDCD08E5CFD141B96B03D217D02AE Accuracy: -m0
Conclusion: CDDA 99%
Signature: 5334DF0892FF6A8DB0CE4271FA7864E2D19EDB87
FILE: 10. Long Black Train (Live From Gaither Studios).flac
Size: 29138245 Hash: 0691BBCC017B343C39C5895295793398 Accuracy: -m0
Conclusion: CDDA 100%
Signature: 268B71148406F334628D159440B934078009B3E5
FILE: 09. Amazing Grace.flac
Size: 36665799 Hash: 235EDFFCC71E24612A6EA7FA91628C72 Accuracy: -m0
Conclusion: CDDA 100%
Signature: F9C038FD6FCFCECA0A322F49132B0D9D38056E45
FILE: 08. The River (Of Happiness) (Live From Gaither Studios).flac
Size: 9868545 Hash: 8BC98E92506FC16A070466C0A3500FC2 Accuracy: -m0
Conclusion: CDDA 100%
Signature: 13DA997AA44BD3E63506004715C2ED1CFF229940
FILE: 07. How Great Thou Art.flac
Size: 25763511 Hash: 2A68FB6CD355815FE1FFE27278149FB2 Accuracy: -m0
Conclusion: CDDA 100%
Signature: 3F6E20A8DE9131D454A94D7AB9E11A0E8D1ADC3F
FILE: 06. I Serve A Savior.flac
Size: 27266455 Hash: F789703B966C4EFF3E19DD260EE5CBA6 Accuracy: -m0
Conclusion: CDDA 100%
Signature: 93A03F6723E00E6A21D0A59CB7FF550862ADFE7C
FILE: 05. Without Him.flac
Size: 19185110 Hash: 8096B616EA56103DBF025FDDD129839B Accuracy: -m0
Conclusion: CDDA 100%
Signature: 4FDDC65F611B1C5F404687F704BC9A1C1DFB98D6
FILE: 04. Swing Low, Sweet Chariot.flac
Size: 27267975 Hash: 89955D811B678A57973F7423819EB5A1 Accuracy: -m0
Conclusion: CDDA 100%
Signature: 11E670A3633E360B5D5E2EEA32BEEBEA6D8740DE
FILE: 03. Great Is Your Faithfulness.flac
Size: 25224040 Hash: E81F1972B3DE7E907E41C45E9824F5D5 Accuracy: -m0
Conclusion: CDDA 100%
Signature: 41E337ADDBE0F3BFED6BA73CBAC69C2149FF0086
FILE: 02. I Pray My Way Out Of Trouble.flac
Size: 24663268 Hash: 8E0676637E43EFB056EDEE8EE4B5B916 Accuracy: -m0
Conclusion: CDDA 99%
Signature: 07DD2E321F700CFC4F8ABA4215BB5F26802F971A
FILE: 01. I Saw The Light.flac
Size: 23487819 Hash: 655491D648CB847F354EA79009454DE9 Accuracy: -m0
Conclusion: CDDA 100%
Signature: F1730BAAF7FEB3DB1EB5CEDBE10B92536AD56E05
Вверх