• Для скачивания альбомов c Облако Mail.Ru и Яндекс.Диск на нашем сайте необходимо зарегистрироваться.
  • Заказать необходимый альбом Вы можете в нашем специальном разделе "Стол заказов ".
Josh Groban - Bridges (2018) [WEB / FLAC / lossless]

Josh Groban - Bridges (2018) [WEB / FLAC / lossless]

нет прав для скачивания с cloud.mail.ru
  • Автор rdf
  • Дата создания
  • Рекомендуемый

Исполнитель: Josh Groban
Альбом: Bridges
Носитель: WEB альбом
Лейбл: Reprise Records
Дата выпуска: 2018-09-21
Жанр: Pop
Формат: FLAC (tracks)
Битрейт: 792-987 kbps
Продолжительность: 00:49:42
Пароль на архив: grandorchestra

Треклист:
1. Granted [00:04:39]
2. Symphony [00:03:32]
3. River [00:04:13]
4. Musica del Corazon (feat. Vicente Amigo) [00:04:14]
5. Bridge Over Troubled Water [00:04:52]
6. Run (Duet with Sarah McLachlan) [00:04:47]
7. S'il suffisait d'aimer [00:04:23]
8. Won't Look Back [00:03:41]
9. We Will Meet Once Again (Duet with Andrea Bocelli) [00:03:55]
10. More of You [00:04:15]
11. 99 Years (Duet with Jennifer Nettles) [00:04:02]
12. Bigger Than Us [00:03:04]

foobar2000 1.3.9 / Замер динамического диапазона (DR) 1.1.1
Дата отчёта: 2018-09-25 06:40:50

--------------------------------------------------------------------------------
Анализ: Josh Groban, Andrea Bocelli / Bridges (1)
Josh Groban, Jennifer Nettles / Bridges (2)
Josh Groban, Sarah McLachlan / Bridges (3)
Josh Groban, Vicente Amigo / Bridges (4)
Josh Groban / Bridges (5-12)
--------------------------------------------------------------------------------

DR Пики RMS Продолжительность трека
--------------------------------------------------------------------------------
DR7 0.00 дБ -10.77 дБ 3:55 09/12-We Will Meet Once Again (Duet with Andrea Bocelli)
DR5 0.00 дБ -7.59 дБ 4:02 11/12-99 Years (Duet with Jennifer Nettles)
DR5 0.00 дБ -8.25 дБ 4:48 06/12-Run (Duet with Sarah McLachlan)
DR5 0.00 дБ -6.02 дБ 4:14 04/12-Musica del Corazon (feat. Vicente Amigo)
DR4 -0.30 дБ -7.31 дБ 4:13 03/12-River
DR6 0.00 дБ -8.91 дБ 4:53 05/12-Bridge Over Troubled Water
DR5 0.00 дБ -7.47 дБ 4:40 01/12-Granted
DR5 0.00 дБ -7.48 дБ 3:33 02/12-Symphony
DR7 -0.08 дБ -10.11 дБ 4:24 07/12-S'il suffisait d'aimer
DR6 -0.01 дБ -7.92 дБ 3:41 08/12-Won't Look Back
DR6 0.00 дБ -8.46 дБ 4:15 10/12-More of You
DR5 0.00 дБ -8.17 дБ 3:05 12/12-Bigger Than Us
--------------------------------------------------------------------------------

Количество треков: 12
Реальные значения DR: DR6

Частота: 44100 Гц
Каналов: 2
Разрядность: 16
Битрейт: 929 кбит/с
Кодек: FLAC
================================================================================

-----------------------

DON'T MODIFY THIS FILE

-----------------------

PERFORMER: auCDtect Task Manager, ver. 1.6.0 RC1 build 1.6.0.1
Copyright (c) 2008-2010 y-soft. All rights reserved
http://y-soft.org

ANALYZER: auCDtect: CD records authenticity detector, version 0.8.2
Copyright (c) 2004 Oleg Berngardt. All rights reserved.
Copyright (c) 2004 Alexander Djourik. All rights reserved.


FILE: 12. Bigger Than Us.flac
Size: 21571183 Hash: 2985AFC8224E39D958AAC90A4731D982 Accuracy: -m0
Conclusion: CDDA 100%
Signature: ADC690E8987532D2263923583CA1A88259B0B990
FILE: 11. 99 Years (Duet with Jennifer Nettles).flac
Size: 28506033 Hash: CE52281ED4B27D0B9436D0128ABCA1EB Accuracy: -m0
Conclusion: CDDA 100%
Signature: 881FA689FC2C5E50AFEA2C9A3600C8F538CF420D
FILE: 10. More of You.flac
Size: 27343307 Hash: 2DB7E95FAACB45D9810730EB0D0FA827 Accuracy: -m0
Conclusion: CDDA 99%
Signature: 38E0653F77CE4A1837D25FD750F577152059855C
FILE: 9. We Will Meet Once Again (Duet with Andrea Bocelli).flac
Size: 25339629 Hash: E01C2AF01B7E3C4C7765E6BA773C672F Accuracy: -m0
Conclusion: CDDA 100%
Signature: 6E531FAC2E3CBA4547B52991C2129DBD6866AF12
FILE: 8. Won't Look Back.flac
Size: 25785536 Hash: 8763C5CC21CDF5DB8A8E9A62101ABFFD Accuracy: -m0
Conclusion: CDDA 100%
Signature: 1EF15D79199B350C68AD90D00B36B8878F60A688
FILE: 7. S'il suffisait d'aimer.flac
Size: 26244526 Hash: 31DA02F033C01EE62653F52A0CB6D4E2 Accuracy: -m0
Conclusion: CDDA 100%
Signature: 717E43682D0B725E0FA59F248EC1111B0951C479
FILE: 6. Run (Duet with Sarah McLachlan).flac
Size: 33202481 Hash: F474DFB98214A7D2920E66DE91195801 Accuracy: -m0
Conclusion: CDDA 100%
Signature: DC93EF167E9CEC1406AD70176B87D986F9D4A645
FILE: 5. Bridge Over Troubled Water.flac
Size: 32104811 Hash: F2F24431694B533E3463E62769310684 Accuracy: -m0
Conclusion: CDDA 100%
Signature: 1F1189122E388AC5E5A5E7B57CC6D4BE1015898D
FILE: 4. Musica del Corazon (feat. Vicente Amigo).flac
Size: 30536614 Hash: CD7EBF4E3A528AEFF00BC4C068CBD3AB Accuracy: -m0
Conclusion: CDDA 100%
Signature: 1B1D8F97F697B3ED369C41B362CAAFD604EEF3AC
FILE: 3. River.flac
Size: 31285243 Hash: B793F14A7161EAE0847B6D06F45AD0FA Accuracy: -m0
Conclusion: CDDA 100%
Signature: E59983581BE2E49376B268549C2CBEC5A00690CC
FILE: 2. Symphony.flac
Size: 23594895 Hash: C53DACCEB56DCD5AEBC49A50F8D1CA00 Accuracy: -m0
Conclusion: CDDA 100%
Signature: CEBFA98946D1E7BE196A8BCD8B6835C25E7A6F4C
FILE: 1. Granted.flac
Size: 33249787 Hash: F7FF0888B66EEFBF2D016E3723DFA04E Accuracy: -m0
Conclusion: CDDA 100%
Signature: D0F8AC4AB2478924CFC24FE9AFE606AB720850C9
Вверх