• Для скачивания альбомов c Облако Mail.Ru и Яндекс.Диск на нашем сайте необходимо зарегистрироваться.
  • Заказать необходимый альбом Вы можете в нашем специальном разделе "Стол заказов ".
Jon Batiste - Hollywood Africans (2018) [WEB / FLAC / 24bit lossless]

Jon Batiste - Hollywood Africans (2018) [WEB / FLAC / 24bit lossless]

нет прав для скачивания с cloud.mail.ru

Исполнитель: Jon Batiste
Альбом: Hollywood Africans
Носитель: WEB альбом
Дата выпуска: 2018
Жанр: Jazz
Формат: FLAC (tracks)
Битрейт: 1365-1552 kbps
Продолжительность: 00:41:39
Пароль на архив: grandorchestra

Треклист:
01. Kenner Boogie [00:03:22]
02.
What A Wonderful World [00:04:53]
03.
Chopinesque [00:03:42]
04.
Saint James Infirmary Blues [00:04:18]
05.
Nocturne No. 1 in D Minor [00:03:26]
06.
The Very Thought Of You [00:04:37]
07.
Green Hill Zone [00:02:54]
08.
Mr. Buddy [00:03:44]
09.
Is It Over [00:05:38]
10.
Smile [00:01:11]
11.
Don’t Stop [00:03:49]

foobar2000 1.3.9 / Замер динамического диапазона (DR) 1.1.1
Дата отчёта: 2018-09-29 10:50:17

--------------------------------------------------------------------------------
Анализ: Jon Batiste / Hollywood Africans
--------------------------------------------------------------------------------

DR Пики RMS Продолжительность трека
--------------------------------------------------------------------------------
DR12 -0.20 дБ -13.82 дБ 3:23 01-Kenner Boogie
DR12 -1.73 дБ -18.23 дБ 4:54 02-What A Wonderful World
DR11 -0.20 дБ -14.82 дБ 3:43 03-Chopinesque
DR13 -0.10 дБ -17.33 дБ 4:19 04-Saint James Infirmary Blues
DR13 -0.17 дБ -16.86 дБ 3:26 05-Nocturne No. 1 in D Minor
DR14 -0.94 дБ -18.82 дБ 4:37 06-The Very Thought Of You
DR14 -2.78 дБ -20.44 дБ 2:54 07-Green Hill Zone
DR14 -0.24 дБ -18.13 дБ 3:44 08-Mr. Buddy
DR10 -0.20 дБ -13.52 дБ 5:38 09-Is It Over
DR15 -3.76 дБ -23.58 дБ 1:12 10-Smile
DR10 -0.20 дБ -14.58 дБ 3:50 11-Don’t Stop
--------------------------------------------------------------------------------

Количество треков: 11
Реальные значения DR: DR12

Частота: 48000 Гц
Каналов: 2
Разрядность: 24
Битрейт: 1536 кбит/с
Кодек: FLAC
================================================================================
Вверх