• Для скачивания альбомов c Облако Mail.Ru и Яндекс.Диск на нашем сайте необходимо зарегистрироваться.
  • Заказать необходимый альбом Вы можете в нашем специальном разделе "Стол заказов ".
Jimmie Allen - Mercury Lane (2018) [WEB / FLAC / lossless]

Jimmie Allen - Mercury Lane (2018) [WEB / FLAC / lossless]

нет прав для скачивания с cloud.mail.ru

Исполнитель: Jimmie Allen
Альбом: Mercury Lane
Носитель: WEB альбом
Дата выпуска: 2018
Жанр: Country
Формат: FLAC (tracks)
Битрейт: 845-1019 kbps
Продолжительность: 00:46:57
Пароль на архив: grandorchestra

Треклист:
01. American Heartbreaker [00:02:48]
02.
Make Me Want To [00:02:52]
03.
Deserve to Be [00:03:40]
04.
How to Be Single [00:02:59]
05.
Wait for It [00:03:12]
06.
High Life [00:03:16]
07.
21 [00:02:48]
08.
Underdogs [00:02:56]
09.
Like You Do [00:03:10]
10.
Back of Your Mind [00:02:53]
11.
Boy Gets a Truck [00:03:27]
12.
County Lines [00:03:03]
13.
Best Shot [00:03:15]
14.
Warrior [00:03:30]
15.
All Tractors Ain't Green [00:03:02]

foobar2000 1.3.9 / Замер динамического диапазона (DR) 1.1.1
Дата отчёта: 2018-10-18 23:15:23

--------------------------------------------------------------------------------
Анализ: Jimmie Allen / Mercury Lane
--------------------------------------------------------------------------------

DR Пики RMS Продолжительность трека
--------------------------------------------------------------------------------
DR7 0.00 дБ -8.16 дБ 2:49 01-American Heartbreaker
DR5 0.00 дБ -6.99 дБ 2:52 02-Make Me Want To
DR7 0.00 дБ -8.47 дБ 3:40 03-Deserve to Be
DR7 0.00 дБ -8.86 дБ 3:00 04-How to Be Single
DR5 0.00 дБ -7.16 дБ 3:12 05-Wait for It
DR5 0.00 дБ -6.69 дБ 3:16 06-High Life
DR6 0.00 дБ -7.91 дБ 2:49 07-21
DR6 0.00 дБ -7.63 дБ 2:56 08-Underdogs
DR6 0.00 дБ -7.67 дБ 3:11 09-Like You Do
DR7 0.00 дБ -8.57 дБ 2:54 10-Back of Your Mind
DR5 0.00 дБ -7.19 дБ 3:27 11-Boy Gets a Truck
DR6 0.00 дБ -7.75 дБ 3:04 12-County Lines
DR8 -0.72 дБ -10.40 дБ 3:15 13-Best Shot
DR6 -0.05 дБ -7.86 дБ 3:30 14-Warrior
DR5 0.00 дБ -7.57 дБ 3:03 15-All Tractors Ain't Green
--------------------------------------------------------------------------------

Количество треков: 15
Реальные значения DR: DR6

Частота: 44100 Гц
Каналов: 2
Разрядность: 16
Битрейт: 871 кбит/с
Кодек: FLAC
================================================================================
-----------------------

DON'T MODIFY THIS FILE

-----------------------

PERFORMER: auCDtect Task Manager, ver. 1.6.0 RC1 build 1.6.0.1
Copyright (c) 2008-2010 y-soft. All rights reserved
http://y-soft.org

ANALYZER: auCDtect: CD records authenticity detector, version 0.8.2
Copyright (c) 2004 Oleg Berngardt. All rights reserved.
Copyright (c) 2004 Alexander Djourik. All rights reserved.


FILE: 15. All Tractors Ain't Green.flac
Size: 20355917 Hash: 1642AB7429EDE126DEFBE51603215B3D Accuracy: -m0
Conclusion: CDDA 100%
Signature: 4047124F3881A8C42BBBD5A63B6921FD7FF4A0B6
FILE: 14. Warrior.flac
Size: 24789729 Hash: 272CDBFF2E70657E5872CC80EA217556 Accuracy: -m0
Conclusion: CDDA 100%
Signature: DF6F8641834B2F3FE774E66D27B04DF20256B531
FILE: 13. Best Shot.flac
Size: 21106940 Hash: 2463523276A5FAE2BB51C892869590D0 Accuracy: -m0
Conclusion: CDDA 100%
Signature: 4214E2BDA8AEDBCE0708F13D1C6A88BAEC9775EC
FILE: 12. County Lines.flac
Size: 22763472 Hash: 33DF2A27F5B204C1BA25623AA0ED6B97 Accuracy: -m0
Conclusion: CDDA 100%
Signature: 961A6550117834E75C429A2D63CBF61DD0503745
FILE: 11. Boy Gets a Truck.flac
Size: 25276447 Hash: 88AF90DE9ED226C3965FE226BD411E4E Accuracy: -m0
Conclusion: CDDA 100%
Signature: B39FF4276BF96A0469485FDDF7E9147C015B8EEF
FILE: 10. Back of Your Mind.flac
Size: 21974304 Hash: 8DF77FEC345A0DBA76885BCC49B20AE8 Accuracy: -m0
Conclusion: CDDA 100%
Signature: 411E7856E1C19C7452CC88D88DD47B4EB5F21C61
FILE: 09. Like You Do.flac
Size: 24214930 Hash: 368F8607B2AA4C9C05BD132F1E1814CD Accuracy: -m0
Conclusion: CDDA 100%
Signature: 4053F61EA653100B8A2932912AE380D1073B32C0
FILE: 08. Underdogs.flac
Size: 22475714 Hash: 886AF2249E52E3B09BA6C2161D4A96FA Accuracy: -m0
Conclusion: CDDA 100%
Signature: 3955729F01149818BE61829014A92910F18702E9
FILE: 07. 21.flac
Size: 19722605 Hash: 912A8F793992D7644E8B4A244192D73C Accuracy: -m0
Conclusion: CDDA 99%
Signature: 12191D5846EB0BA03B031B78CC8666C8DAF2AF1A
FILE: 06. High Life.flac
Size: 24549769 Hash: 3A0954ACE24A559FD021960C3E15B8B6 Accuracy: -m0
Conclusion: CDDA 100%
Signature: DE3BDAA89484FCEA0AE0725A8652797B2753B8DC
FILE: 05. Wait for It.flac
Size: 23813201 Hash: 59E98C158024410EF4B846223F8AF5ED Accuracy: -m0
Conclusion: CDDA 99%
Signature: ABA9B9F3531F5F9D869AABAE9D8C1CA6785F6A41
FILE: 04. How to Be Single.flac
Size: 21644657 Hash: ED16C83C697B8EC3CB4A1710B950730E Accuracy: -m0
Conclusion: CDDA 100%
Signature: 9A8C0FA49696694E0AA46DC90C8DA7AAEA2F2BAD
FILE: 03. Deserve to Be.flac
Size: 26375461 Hash: 5DBD0504DFC6B575C560CF92F9B294ED Accuracy: -m0
Conclusion: CDDA 100%
Signature: 81233D4234CF8BDC459502A733C96367EC57F5E4
FILE: 02. Make Me Want To.flac
Size: 22309924 Hash: E65AB6DFE496B4E3B289E15B9A76D758 Accuracy: -m0
Conclusion: CDDA 100%
Signature: EBF1FB9A8934BA51C565DD838453E0A0052E5CFC
FILE: 01. American Heartbreaker.flac
Size: 21953433 Hash: E855590C25D52100E6D2DC32299BC79B Accuracy: -m0
Conclusion: CDDA 100%
Signature: 2E297859C3D6ED2E9B819941364F3C4EB3744351
Вверх